&title=wi(l)d-screen baroque[full]
&artist=三好啓太
&first=0
&des=Yuzukeai
&lv_5=14
&inote_5=(160)
{1},,
{32}1b/8b,27,36,4s8[1:1]/5z1[1:1],,,,,
{4},,,,,,3>6[4:3],5h[1:1],,,,
{24}6,7,8,1,2,3,4z8[4:1],5,6,7,8,1,2,,,,,,,,,,,,
{16}2v5[8:1]/5h[4:1],,,,,,,,,,6,,3,2,1,,
{16}8-4[8:1]/4h[4:1],,,,,,,,,,3,,6,7,8,,
{16}1-5[8:1]/5h[4:1],,,,,,,,,,6,,2,1,8,,
7v4[8:1]/4h[4:1],,,,,,,,5,6,7,8,4,3,2,1,
8-4[8:1]/4h[4:1],,,,,,,,,,3,,4,5,6,,
3-7[8:1]/7h[4:1],,,,,,,,,,6,,5,4,3,,
6-2[8:1]/2h[4:1],,,,,,,,,,3,,6,7,8,,
1-5[8:1]/5h[4:1],,,,,,,,4,3,2,1,7,6,5,4-8[2:1],,,,,,,,,,,,,,,,,
{24}1,2,3,7,6,5,2,3,4,8,7,6,
{16}51,,,37,,,2,2,
{32}7b,6,5,,
{16}1,,14,,,,
35,,6,4,5,,2h[8:1],,
4,,3,5,4,,6,5,
7h[8:1],,4,5,3,,4h[8:1],,
2,,6,4,5,,3,4,
2h[8:1],,5,4,6^3[8:1],,5,,
6,,,,1-4[8:1],,,,61,,7,,8-5[8:1],,,,2<4[4:1]/8,,
{16},,2,,,,
8,,2-4[8:1],7,1,,2,,
7,,6,4,5,,3,4,
2h[8:1],,5,4,6,,7h[8:1],,
5^2[8:1],,,,65,,,,1/4^7[8:1],,,,34,,,,
8h[8:1],,3h[8:1],,4h[8:1],,1h[8:1],,6h[8:1],,5h[8:1],,1-5[8:1],,,,
1b^4[8:1]/5^8[8:1],,,,,,,,7-3[8:1],,7,,1q5[8:1],,1,,
7-3[8:1],,,,37,,,,2-6[8:1],,2,,5^8[8:1],,5,,
2-6[8:1],,,,52,,,,7-3[8:1],,7,,1-5[8:1],,2,,1<3[4:1],,,,1,,,,2,,1,,4/8-4[8:1],,,,
8^5[8:1]/4^1[8:1],,,,8,,,,2-6[8:1],,2,,8p4[8:1],,8,,
3^8[8:1],,,,73,,,,6-2[8:1],,6,,1-5[8:1],,1,,
8^3[8:1]*^5[8:1],,,,8,,,,4w8[8:1],,,,4,,,,
2h[8:1],,6h[8:1],,1h[8:1],,5h[8:1],,8h[8:1],,4h[8:1],,7h[8:1],,3h[8:1],,6,,5,,4V28[4:1]/7,,,,,,,,
6h[4:1],,,,,,6h[4:1]/8h[4:1],,,,,,1,2,3,,5h[32:1],,,,6p2[4:1]/5,,,,,,,,,,,,
3h[4:1],,,,,,3h[4:1]/7h[4:1],,,,,,6,4,5,,3h[32:1],,,,4/3^6[4:1],,,,,,,,,,
7,8,6h[4:1],,,,,,2h[4:1]/6h[4:1],,,,,,3,5,4,,6h[32:1],,,,7^8-5[16:5]/5q4[16:5],,,,,,,,,,,,2h[4:1],,,,,,2h[4:1]/6h[4:1],,,,,,,,,,1q5[8:1]/5q1[8:1],,,,,,,,4,3,2,1,
8-4[8:1]/4,,,,8b/4,,
{16},,26,,3,5,
4,,6,5,7,,2h[8:1],,
4,,3,7,5h[8:1],,6,2,
4h[8:1],,3,7,5h[8:1],,6h[8:1],,
2-5[8:1],,2,,8,,7,,
6-1[8:1],,6,,1,,2,,
3^6[8:1],,3,,7p3[8:1],,7,,1,,2,,1-4[8:1],8,7,6,51,,
{16},,26,,7,3,
5,,2,6,4,,7h[8:1],,
5,,6,1,4h[8:1],,3,8,
5h[8:1],,6,2,4h[8:1],,3,,4>6[2:1]*>1[4:1]/6b,,,,,,,,,,,,,,,,
(137)
{32}6V82[16:3]/5b,4,3,,,,,,2<6[16:3]/6,,,,,,,,4-1[32:3],,,,,,,,4,,,,,,,,
{32}3V17[16:3],,,,,,,,7>3[16:3]/3,,,,,,,,5,,,,,,,,
{12}4V68[16:3]/8^5[8:1],,,8>4[16:3],,,4v1[8:1],,,7,,,
5V31[16:3]/1^4[8:1],,,1<5[16:3],,,5v8[8:1],,,2,,,
{12}3V57[16:3]/7^4[8:1],,,7>3[16:3],,,3v8[8:1],,,1,,,
{12}6V42[16:3]/2^5[8:1],,,2<6[16:3],,,4,,,8,6,2,5^2[8:1],3,7,5b<1[16:3],,,1V75[16:3],,,5>1[16:3],,,1V35[16:3],,,5V37[4:1],,2,2,,1,1-4[8:1],,6,6,,7-5[8:1],4-8[8:1],,7,4,,6-1[8:1],2-5[8:1],,6,2,,8-4[8:1],3-1[8:1],,8-6[8:1],3,,8,1-5[8:1],,,1b/5,,,
(143)
{16}7h[8:1],,4,3,26,,5h[8:1],,1^6[8:1],2,3,,4/1^4[8:1],,,,1/6-2[8:1],,,,5^2[8:1]/6,,,,5/8-4[8:1],,,,81,,,,
{16}1h[8:1],,8,7,63,,2h[8:1],,5p8[6:1],6,7,,5>1[6:1],,7,6,5,,,,2qq3[8:3]/7,36,45,,7h[4:1],,,,,,,,7-4[8:1]/4,,,,37,,,1,4-7[8:1]/8-3[8:1],,,,8/4-1[8:1],,,,48,,,6,1-4[8:1]/5-8[8:1],,,,1-6[8:1]/5,,,,5/1,,,3,6-1[8:1]/2-5[8:1],,,,2-7[8:1]/6-3[8:1],,,,2<4[4:1]/6,,,,6bpp1[4:3]/2,,,,,,,,,,,,,,,,,,,,
{16}2/4h[8:1],,,,3,3,5,,,,4,,6,6,5,,
{16}7/4h[8:1],,,,6,6,5,,,,4,,3,3,4,,
2/5h[8:1],,,,3,3,5,,4,6,4,5,3,4,2,4,
1h[8:1],,,,5,5,1,,,,3,,7,7,4,,
8h[8:1],,,,4,4,8,,,,6,,3,3,5,,
2h[8:1],,,,5,5,2,,,,3,,7,7,5,,
8h[8:1],,,,3,3,5,,6,3,4,2,8-4[8:1],1,7,2,
8b,,,,1h[8:1]/5,,6,,7/2h[8:1],,8,,1/3h[8:1],,,,2h[8:1]/8,,7,,6/1h[8:1],,5,,4/8h[8:1],,,,5h[8:1]/1,,2,,3/6h[8:1],,4,,5/7h[8:1],,,,6h[8:1]/4,,3,,2/5h[8:1],,1,,
(138)
8b-4[8:1]/4,,,,,,,,
{16}2,6,5,7,3-1[12:1],4,2,5,
(192)
,,,,
{12}7b,3,5,2,4,3,5,3,1,2h[6:1]/8,,,{12}7,5,6,4,6,5,7,5,6,4h[6:1],,,
{12}6,6,6,7h[6:1]/5,,,4,4,4,3h[6:1]/5,,,4,2,3,1,5,4,6,3,5,1h[6:1],,,
{12}2b,6,4,7,5,6,4,6,8,7h[6:1]/1,,,{12}2,4,3,5,3,4,2,4,3,5h[6:1],,,
{12}3,3,3,2h[6:1]/4,,,5,5,5,6h[6:1]/4,,,5,7,6,8,1,4,3,6,4,
8b,,,15,2,3,7-3[8:1]/4,,,7b/3,,,51,6,7,3-7[8:1]/8,,,3b/7,,,
15,2,3,7-3[8:1]/4,,,7b/3,,,15,6,7,3-7[8:1]/8,,,
3b/5-1[8:1],,,5<2[4:1]/2,3,4,5/8b,,,4b-8[8:1],,,4>7[4:1]/7,6,5,4/1b,,,5b-1[8:1],,,5<2[4:1]/2,3,4,5/8b,,,4b,,,62,51,84,7-2[8:1]/3-6[8:1],,,
(196)
7b>6[4:3]/3b,,,,,,,,,,,,
,,,1-5[8:1]/5,,,
1pp5[4:3]/5pp1[4:3],,,,,,,,,,,,,,,3-7[8:1]/7-3[8:1],,,
7/3<2[4:3],,,,,,,,,,,,,,,3/7-3[8:1],,,
3qq7[4:3]/7qq3[4:3],,,,,,,,,,,,,,,15,,,
{12}2h[6:1]/6,,,2,6,4,8h[6:1],,,8,4,6,2h[6:1],,,2,6,4,
8h[6:1],,,8,2,4,1h[6:1],,,1,5,3,7h[6:1],,,7,3,5,
1h[6:1],,,1,7,5,8h[6:1],,,8,3,5,
1h[6:1],,,1,7,5,
8h[6:1],,,8,2,4,1h[6:1],,,1,7,5,1h[12:1],3,5,
1h[12:1],7,5,1b^6[6:1],,,5,4,3,2h[6:1],,,8,2,4,
8h[12:1],6,4,8h[12:1],2,4,
{24}8b^3[8:1],,,,,,4,5,6,7,8,1,2<6[6:1],,,,,,6,5,4,3,2,1,8,,,,,,4b/8b,51,62,37,48,51,
(197)
{12}2/6>2[4:4],,,,,,,,,,,,8p4[4:4],,,,,,,,,,,,3p7[4:4],,,,,,,,,,,,6h[4:3],,,,,,,,,,,,
26,,,3,7,4,7,,,6,2,5,2,,,3,6,4,6,,,7,1,6,1,,,2,7,3,7,,,6,2,5,2,,,3,6,4,6,,,5,3,4,
(192)
3bs7[1:8]*V51[1:2],,,,,,,,,,,,,,,,,,,,,,,,,,,,,,,,,,,,,,,,,,,,,,,,,,,,,,,,,,,,,,,,,,,,,,,,,,,,,,,,,,,,,,,,,,,,,,,,,,,,,,,,,,,,,,,,,,,,,
(120)
{16}1b/7b,,,6/2q5[8:3],,,,,,,,,,,,,
8b/2b,,,3/7p4[8:3],,,,,,,,,,,,,1b/8b,,,2p5[8:3]/7q4[8:3],,,,,,,,,,,,,
(117)
36,,,27,,3p6[4:1],8,2h[16:7],4,,,,,,,,
25,,,34,,6q3[4:1],1,7h[16:7],5,,,,,,,,
47,,,56,,3p6[4:1],8,1h[16:7],4,,,,,,,,
25,,,34,,7,4,5,8,6,1,8,3,5,4,7,
8,,,25,,6,4p8[8:1],8,5,,7,6,5,,61,52,
34,,,57,,3,5q1[8:1],1,4,,1,2,3,,28,37,
6/4pp6[6:1],,3,,2<6[6:1],,2,,5-8[8:1],,5,,3>5[8:3],,4,,
3b,,,,,,,,,,3,,82,,71,,
7,5,6,3,4,2,8,1,
7pp6[4:1],,,4,7,,,,
,3,3,5,2,4,1,3,2,4,3,6,5,7,1,8,
2h[4:1],,
{24}7,6,5,4,,,83,,,
{16}6,5,7,,61,,2,4,3,,28,8b,1,7b,5,8,
3,4,2,6,5,7,4,8,1,7,4,5,3,6,2,7,7,
{24}1,2,3,
{16}8,8,2,2,5,
1b,4,2,3,2,8b,5,7,6,7,1b,4,2,3,2,8b,5,7,6,7,1b<4[4:1],4,2,3,
1b,,,
{32}1,8,7,,,,,1,8,7,
6,,,,{16}73,26,1pp3[16:3]/5pp7[16:3],,,,,,,,,6,2,5,34,,47,,16,,8,3,7,,15,,2,6,3,7,
4,8,5,1,3,7,2,5,1,4,3,8,1,4,3,7,
8,5,4,8,1,6,5,1,3,4,8,7,5,6,2,1,
3bq5[1:1]/8,,,,,,,,,,,,,,,,,,,,,,,,
5p3[1:1],,,,,,2,,,,,,3,,,,,,4,,,,,,
5,,,,6/4z8[4:1],,,5,5,,,,6,,,,
3/5s1[4:1],,,4,4,,,,3,,,2b>8[8:5]/7b<1[8:5],
2b/7b,,,,,,,,,,,,,,,,
(171)
{32}2b/8,7,6,5,{16}4h[16:1],,2b,,35,,2b,4,3,,2b/5,,6,,
{16}7b/1,,6,5,7b,,64,,7b,5,6,,7b/4,,3,,
2b-6[8:1]/8,,,,2/5b-8[8:1],,,,1-4[8:1]/5b,,,,1b/7qq8[16:5],,,,
7b/1^4[8:1],,,,1b-5[8:1],,,,5b^8[8:1]/1^4[8:1],,,,1b/5,,,,
1<4[16:3]/5b,,3,2,1/5b,,,,3b,2,1,,7b,6,5,,
8b>5[16:3],,6,7,8/4b,,,,6,7,8,1,2,3,4,5,
(172)
6b/8b,,,,
{12}51,41,31,2b/1h[4:1],,,,,,
24,25,26,2h[4:1]/7b,,,,,,
37,47,57,6b/7h[4:1],,,,,,
65,64,63,6h[4:1]/2b,,,,,,
15,26,37,4b/8h[4:1],,,,,,
{24}3h[12:1]/5b,,,,,,
4b/7h[12:1],,,,,,1h[12:1]/6b,,,,,,
3b/8h[12:1],,,,,,
{24}2h[8:1]/8b,7,6,5,,,1b/6h[8:1],2,3,4,,,3h[8:1]/7b,6,5,4,,,2b/8,3,4,5,6,7,
(176)
{16}8,,,
{32}7b/1b,26,35,4b,3,2,1,8,7,6,5,4,3,2,1,8,7,6,5,4,3,2,1,8,7,6,5,4,3,2,
{12}1/5b,4b,3b,8-5[8:1]/2b,7b,6b,
{32}5b/8b,,
,
