&title=Time To Beat The Odds
&artist=影虎。
&first=0.85
&des=HDou
&lv_5=14
&inote_1=
&inote_5=(160)
{16}E4,E6,B2,B7,1x,8x,2x,7x,Cf/6xbh[8:3],,,,,,,,E1f/3xbh[8:3],,,,,,,,
7x/5b,6,,2x/4b,3,,6b/5x,7,,4x/3b,2,,1,8,2,7,
{24}E2,B2,B3,E8,B7,B6,B2,B3,B4,B7,B6,B5,
{32}E2,E3,E4,E5,E6,E7,E8,E1,1x,2x,3x,4x,5x,6x,7x,8x,1bxs5[8:3]/5b-7-3-1b[8:3],,,,
{16},,,,,,,,,,4b/8b,,,,7hx[8:1]/5x,,5,6,2,4,3,7,6/4-7[32:3],,2/4-1[32:3],,,,,
,7,5,6h[16:2],,3,5h[16:2],,2h[16:2],,4,3,5,,6,1,7,2x,4,3,6,4,5h[8:1],,3h[8:1],,4,2,,5/7,,3/5,,8<5[12:1],1,2,8x,,1-5[12:1],2,3,1x,,2,3,4,6,7,8,1x/3hb[8:1],,5,4,7,5,6,2,1-5[32:3]/5,,7-3[32:3]/3,,,,,,
1,8,2h[8:1],,4,3h[8:1],,6h[8:1],,5,7,4,,5,3,6,2x,5,4,7,5,6h[8:1],,5h[8:1],,7,4,,8/3,,2/6,,5<8[12:1],4,3,5x,,4-8[12:1],3,2,4x,,4,3,2,7,6,5,
4x/2xpp5[4:2],,,,2h[4:2],,,,,,,,,,{24}E1,E2,E3,E4/7<4[8:1],,,,,,
{16},,2,,1x/3x,,,7x/2x,,,1x/6x,
,5x/3x,B3,B4,B5,B6,E3,E4,E6,E7,D2,D3,D7,D8,A3,A4,A5,A6/2x,,,3x/8x,,,7xs3[16:5]/5,,,2xz6[16:2]/4x,,,,,,,
{8}4x/5x,4,4/6,4,4/7,4,4/8,4,{16}5x,4,5,,5,3,5,,5,2,5,,5,2,8,1,7x,2,5,4,8,1,6,3,
{32}7x,6,5,4,3,2,1,8,7,6,5,4,3,2,1,8,7x/4x-6[8:1]*-7[8:1],,
{16},,,4x-1[8:1]*-2[8:1],,,,4xw8b[8:1],,,,4b,,,,7h[8:3]/5,,3,,{32}A4,A5,A6,A7,A8,A1,A2,A3,4x-8[12:1]*-2-6[12:2],,{16},5/3,,,,,,7,7,5,5,6,4,5,3,5x-3-7[16:3],6,7,8,,,,,4,3,5h[8:2],,{24}E5,E4,E3,E2,E1,E8,{16}4,8x,4,1x,{32}E5,E6,E7,E8,E1,E2,E3,E4,E5/1,,,,{16}7x/2x,,3,5,4,6,3/7x,3xv1[16:1]/7v5[16:1],,2/6,,,,,6bh[8:3]/Cf,,,,{32}A8,A7,A6,A5,A4,A3,A2,A1,8x-4[12:1]*-6-2[12:2],,{16},1/7,,,,,,3,8,1h[8:1],,8xs4[8:2],7,6,5,8-2-6-4b[12:2],,,,,,,,8bx,,7/5,7/5,,3/6,,1/2,,1/8,,7/8,7/8-5-3-8b[8:5],,1/8,,3x,,,,2x,,,,1xw5[16:1],,{32},,,,1b,Cf/B7/B3,,,
{16},,2x,1,2h[8:1],,4,3,5,4,7h[8:1],,1v4[12:1],8,2,8,1,,7x,8,7h[8:1],,5,6,4,5,2h[8:1],,8v5[12:1],1,7,1,8,,{32}D1,D2,D3,D4,D5,D6,D7,D8,E1,E2,E3,E4,E5,E6,E7,E8,E1f/B1/B8/A1/A8/D1,,{16},,7b/2b,,,1b/3b,,3x,4,3h[8:1],,7,8,7,6,7,5,6,4,Ch[8:1],,,,8xb/2xb,,8/2,,1/3,,1/3,,2,4,3,5,{24}E4,E5,E6,E7,E8,E1,E2/7b,,,{16}1x/7x,,2/8,,1/3,,4,6,5,7,B2,B8,B4,B6,2b,8,4,6,1,7,3,5,{32}1b,8,7,6,5,4,3,2,1,8,7,6,5-7-3[8:2],4,3,2,1x-3-7b[8:1],,{16},,,,,,,8v5[16:1]/4v1[16:1],1/5,,,{32}4b/8b,Cf/B8/B1/B5/B4,,,,,,,
{16}7h[8:5]/3,,,,4,,5,,,,4,,3/7,,,,2h[8:5]/6,,,,5,,4,,,,5,,2/6,,,,7h[8:5]/2,,,,3,,4,,,,3,,6/2,,,,2h[8:5]/7,,,,6,,5,,,,6,,3/7,,,,3/5,,3h[8:4],,B3,,B5,,B1,,B7,,6,,6h[8:4],,B6,,B4,,B8,,B2,,D3,,D4,,D6,,D7,,1pp4[8:2],,,,,,8qq5[8:2],7,6,,,,,,3,2,1w5[8:2],,,,,,,,,,,,8-2-7-3-6-4-8[8:7]*-2-7-3-6-4-8[8:7],,,,4bh[8:4]/8b,,,,,,,,,,,,,,,,
5x,5h[32:1],7,4,4h[32:1],6,3,3h[32:1],5,2,2h[32:1],4,1s5-3-7-1-5b[8:7],6,1,6,5h[8:4]/1b,,,,,,,,,,,,,,,,6x,6h[32:1],4,5,5h[32:1],3,4,4h[32:1],2,8-4[12:1],8h[32:1],,1x/8x,,,,
{32}1,,5,,2,,6,,1x,B1,C,B5,7b,,,,8,,4,,7,,3,,8x,B8,C,B4,2b,,,,1,,6,,2,,5,,2x,B2,C,B5,7b,,,,8,,3,,7,,4,,7x,B7,C,B4,2b,,,,5,,5,,E2f/B1/B2/A1/A2/D2,,,,6,,6,,E3f/B2/B3/A2/A3/D3,,,,7,,7,,E4f/B3/B4/A3/D4/A4,,,,8,,8,,B5/B4/E5f/A5/A4/D5,,,,1x,2,3,4,8x,7,6,5,2x,3,4,5,7x,6,5,4,1x,2,3,4,5,6,7,8,1xz5s1b[8:7]/E2,2/E3,3/E4,4/E5,5/E6,6/E7,7/E8,8/E1f,1bh[8:2],,,,,,,,,,,,,,,,,,,,,,,,5w1[8:3]*w1[8:3],,,,,,,,,,,,,,,,,,,,,,,,3v8[16:1]/7-4[16:1],,,,,,,,7b/3b,Cf/B6/B2/B8/B4,,,
{16},,5hx[8:1]/2x,,3-1-7[8:1],4,2,5,3,,4hx[8:1],,8>3[8:1],5,1,6,8,,7,7,5,6,2,2,4,3,1-5-3[16:2]/8-4-6[16:2],,7/2,,1x/8x,,,,
2hx[8:1]/7x,,7-5-3[8:1],1,6,2,7,,8hx[8:1],,4<7[8:1],1,5,2,4,,2,2,4,4,5,5,7,7,4-8-6[8:1]/5-1-3[8:1],,2/7,,4x/5x,,,,
4x/5xh[8:1],,3>8[8:1],4,2,5,3,,4hx[8:1],,2-4-6[8:1],8,1,7,2,,8,8,1,7,3,3,5,5,2-5-8[8:1]/6-3-8[8:1],,3/5,,2x/6x,,,,
1x/7x,,1/7,3bx/5bx,,,,,2x/8x,,2/8,4bx/6bx,,,,,6-1-4-6b[8:3]/4-1-6-4[8:3],,,,,,,,,,,,E6,E4,B7,B2,
8bx<5[8:1],,7,,2-6[8:1],,3,4,2-4[8:1],,7,,8-4[8:1],,1,,2>5[8:1],,3,,7-3[8:1],,6,,1w5[8:1],,2,,1x,,,,
1b>4[8:1],,2,,7-3[8:1],,6,5,7-5[8:1],,2,,1-5[8:1],,8,,7<4[8:1],,6,,2-6[8:1],,3,,8w4[8:1],,7,,8b,{32}Cf,,,,,,{16}
8b<5[8:1]/1,,7,,2-6[8:1]/8,,3,4,2-4[8:1],,7,,8-4[8:1]/2,,1,,2>5[8:1]/8,,3,,7-3[8:1]/2,,6,,1w5[8:1]/7,,2,,1,,,,
5x,4,6,3,7,2,8,1,{32}8x,7,6,5,4,3,2,1,8x-4[16:1]/3x,7,6,5,4,3,2,1,8bw4b[16:2]/4x,,,,,,,,,,,,,,,,4xw8[16:1],,,,,,,,4b,B4f/B5/B3/E5/E4,,,,,,,
{16}Cf/B7/B8/B1/B2/6xbh[8:3],,,,,,,,E1f/A8/D1/A1/3xbh[8:3],,,,,,,,8b/4x,7,6,5x/1b,2,3,4x/7b,6,5,4x/2b,,,1,8,2,7,{24}1x,8x,1x,8x,1x,8x,2x,7,2,7,2,7,3,6,3,6,3,6,{32}
4,5,6,7,8,1,2,3,4x/8b,,,,2b/7x,6x,5x,,,,1x/6b,2x,3x,,,,2b/8,7,6,,,,3/7b,4,5w1b[16:1],,,,7x/3x,,4x/6x,,5bx,Cf/B5/B4/B3/B2/B1/B8/B7/B6,E
