&title=逆境スペクトル
&artist=ASCA /《Sword Art Online Unleash Blading》主题曲
&first=-0.021
&des=马上2026了我怎么还没玩上SAO
&wholebpm=180.000
&lv_5=13+
&des_5=
&inote_5=(187)
{4}
,,,,,,
{4}
1b/7h[2:3],,,5s1[4:3],,,,,8-5[2:3]/3b,,,3-8[4:3],,,,,
6h[4:3],8,5,3h[4:3],2,1,8>7[2:1],,
{8}
8,8,1,2,6,6,2,3,5,5,4,7,1b,3b,5b,7b,6v3[8:1]/2v7[8:1],,,,,,,,8,8-4[8:1],,8v2[8:1]*v6[8:1],,,,
{16}
,,6-8[8:1]/2-4[8:1],,,,
{8}
,,7-2[8:1]/3-6[8:1],,,,1/5,1V74[6:1]/5V38[6:1],,5/1,,,,,
2/4-6[8:1],,3,,6/4-2[8:1],,5,,6/1-4[8:1],,7,,4/1-6[8:1],,3,,5/8-4[8:1],,6,,3/8-3[8:1],,2<5[4:1],,
{16}
,,4,,4,,,,7/5,,7/5,,,,,,
{8}
1-6[8:1]/8,7,5,4-1[8:1],1,3,5-1[8:1],
{16}
8,,6,,4,4,3,,6,5,7-3[8:1],,1,,3/7,,,,
{8}
1-4[8:1],4,6,7-3[8:1],4,2,1,7/8,
{16}
1,2,3,4,6,7,8,1,5-1[8:1],,5,,5/7,,,,
{8}
6-2[8:1],1,3,4-8[8:1],8,6,7-3[8:1],
{16}
2,,4,,5,5,6,,3,4,2-6[8:1],,8,,6/2,,,,
{8}
7-3[8:1],4,2,1-5[8:1],4,7,8,1b<6[8:1]/2b,,1b/4b>1[8:1],,4b/5b<8[8:1],,5b/2bw6[8:1],,2b,,,,,1pp1[4:3],,,,,,,,,
{16}
6,,3,5,4,6,5-3[8:1],,
{8}
,5/7,,1-4[8:1],2,3,,4-6[8:1],,3/4,,1-5[8:1],2,3,,5-2[8:1],,6/5,,8-5[8:1],7,6,,5-3[8:1],,5/6,,8-4[8:1],7,6,,4-7[8:1],,2/4,,8-4[8:1],1,2,3b-8[8:1],,8bpp4[8:3],,5b<1[8:1],,,,
,2-5[8:1],1,2/8,7,4-1[8:1],5,4/6,7,8<3[4:1],,3,1-4[8:1],,1b/8b,,,7-4[8:1],8,7/1,2,5-8[8:1],4,5/3,2,1>6[4:1],,6,8-4[8:1]*-3[8:1],,8b,,,
3-7[8:1],4,3/5,6,8-4[8:1],1,2/8,3,5<4[8:3],,4,4qq4[4:1]*pp4[4:1],,,,,
2<4[2:1],,,,,,,,1V75[2:1]*V35[2:1],,,,,,,,3>8[4:1],,,4,4p7[4:1],,,3,3>6[2:1],,,5,5h[2:1],,,,6<1[4:1],,,5,5q2[4:1],,,6,6>3[4:1],,,2,2h[2:1],,,,
5-7[8:1],,3,,5-2[8:1]/6,,7,,4-8[8:1]/2,,3,,
{16}
7/4,,,2/4,,,5/7,,8>4[2:1]/1<5[2:1],,,,,,,,,,,,
,,3b/6b,,,,1b/5b,,3b/7b,,,,
{8}
2,1-6[8:1]/7-4[8:1],8,1b/7b>4[4:1],,5b-1[8:1],,,3,2-7[8:1]/8-5[8:1],1,2b/8b>5[4:1],,6b-2[8:1],,,
4,1/3,8,2/6-2[8:1],,3-8[8:1],3,7-4[8:1],7,2-5[8:1],2,7-3[8:1],7>5[4:1],,,,,,
7-3[8:1],7,2,4,
5-2[8:1],5,6,8,
1<6[8:1],1,2,3,
4-8[8:1],,4/2-5[8:1],,
2/8,,4-1[8:1]/7-3[8:1],,,,2b/4b,5b<4[4:1]/6b,,8,,5-1[8:1],5,,
7,8-3[8:1]/2-5[8:1],1,8b/2b<5[4:1],,4b-8[8:1],,,6,7-2[8:1]/1-4[8:1],8,7b/1b<4[4:1],,3b-7[8:1],,,
5,6/8,7/3h[4:1],,
{16}2-5[8:1],,,8,2,,6,,4-8[8:1],,,5,4,,7,,
1-5[8:1],,,3,1,,4,,6-2[12:1],,,3-6[12:1],,,
{8}
1<3[8:3],,,,,,,
{8}
1-5[8:1]/7,,1/3-8[8:1],,3/5,6-2[8:1],7,2,4<1[4:1],,4/8,,
{16}
5,,4,3,4,3,5,2,5,2,6,1,6,1,7,8,7,8,
{32}
7,6,5,4,
{8}
3h[8:1],1h[8:1],6h[8:1],5h[8:1],3>4[8:9],,,,,,,5,5>6[8:9],,,,,,,,
{8}
4b-8[8:1],4b,,,,,6>3[2:3]*>3[2:3],,,,,,,,,,,,,,,,,,,
