&title=時ノ雨、最終戦争
&artist=Orangestar
&first=2.09
&des_5=Ragna
&lv_5=12
&des=Ragna
&wholebpm=115
&demo_seek=87.1
&demo_len=18.4
&inote_5=(115){8}
3h,4,5,6,3,4h,5,6,
3,4,5h,6,3,4,5,6h,
2h,3,5,6,2,3h,5,6,
2,3,5h,6,2,3,5,6h,
3h,4,6h[4:1],,5h[4:1],,4h[4:1],,
3h[4:1],,4h[4:1],,5h[4:1],,6h[4:1],5,
5<4[16:7],,7,,,,6-3[8:1],,
2q5[2:1],,,,,,,,
2,4,3,3,5,4,6,6,
5,7,4,5,2,6,{16}3,4,{8}3,
5,4,6,6,5,7,4,4,
6,7,5pp4[8:3],4,4,,,,
3,4,2,2,5,4,{16}6,5,{8}6,
4,5,2,6,5,7,{16}3,4,{8}3,
5,4,7,7,3,6,4,4,
5,2,6^3[4:1],7,7,,,,
26,,3h[4:1],,4h[4:1],,5h[4:1],,
6h[4:1],,5h[4:1],,4h[4:1],,3h[4:1],4,
4>5[16:7],,2,,,,3-6[8:1],,
6p4[2:1],,,,,,,,
7,,6h[4:1],,5h[4:1],,4h[4:1],,
3h[4:1],,4h[4:1],,5h[4:1],,6h[4:1],5,
5<4[16:7],,7,,,,6,5,
4q5[2:1],3,,,,,,,
7-3[4:3]/3,,,,,,,,
2-6[4:3],,,,,,,,
8^5[16:5],,,,1^4[16:5],,,,
8-4[8:1],,8<2[32:11],,,,,,
3-5[8:1]/5h[8:1],,6h[8:1],,7h[8:1]/3-5[8:1],,8h[8:1],,
7-5[8:1]/4h[8:1],,3h[8:1],,2h[8:1]/7-5[8:1],,1h[8:1],,
24,3,45,6,75,6,45,3,
2/1<4[12:5],,6>1[12:5],,3>6[12:5],,8^6[6:1],,
5pp4[16:5],4,3,2,1,,,,
,,,,,,,,
,,,,,,,,
,,,,,,,,
,,,,,,,,
26,3,45,6,25,3,45,6,
28,3,45,6,27,3,45,6,
24,3,45,6,28,3,45,6,
71,26,45,36,1h[4:1]/8h[4:1],,,,
2bq7[8:1]/7b,,2/6<3[4:1],,,,,,
7bp2[8:1]*p2[8:1]/2b,,4>5[32:9]*>5[32:9]/7,,,,,,
8-6[8:1]/4,,8V24[8:1]/2,,
5^7[8:1]/8,,5qq3[8:1]/3,,
8p4[10:1]/5,,8^3[8:1]/4,,
5w1[8:1]/8,,5,,
3^8[8:1]/7,5,36,4,5v8[8:1]/1,3,25,4,
3-6[8:1]/7,5,36,8,7-3[8:1]/5,3,74,2,
1^4[8:1]/4,6,15,7,8-4[8:1]/5,3,84,2,
15,{16}2,4,3,7,5,6,{8}1b,,,,
6h,5,4,3,6,5h,4,3,6,5,4h,3,6,5,4,3h,
7h,6,4,3,7,6h,4,3,7,6,4h,3,7,6,4,3bp2[8:14]/5b,
2b<3[8:13]/6b,,,,,,,,
,,,,,,,,
,,,,,,,,
E
