&title=Quon
&artist=DJ Noriken
&first=0.79
&des=Colin
&lv_5=14
&inote_5=(170)
{16}1-5[8:1],8,2,7,{4}1/Cf,{8}34,2,34,5,
34,2,3h[8:1]/4,,65,7,65,4,
5/6h[8:1],,2,2h[8:1],
Ch[16:1],87,6,87,
1,87,6h[8:1],,
{16}1,1,1,1,{8}1-5[8:1],2,
1/8-4[8:1],7,81,,27,{16}3,4,3,,6,5,
6,,3,4,3,,{8}81,81,{16}2,1,2/E3`B3`B4,,7,8,
7/E7`B6`B5,,2,1,2/E3`B3`B4,,Cf,,4,5,4,5,4,5,4,5,{48}4x,3x,2x,
1x,8x,7x,6x,5x,4x,3x,2x,1x,8x,7x,6x,5x,4x,,{8},48,37,26
,81,
4z8[8:1]/5s1[8:1],,{24}4b/5b/E6/E4,B6`B3,B2`B7,{8}E2`E8,
Ch[8:1],,2xqq6[3:1],4,
4h[4:1],,,,7x<2[4:3],3,3,,
B2,B4,B7,B5,,,5x>5[8:3],5,
5h[4:1],,,,3x>6[4:3],5,5,,
B3,B2,B1,B8,,,{8}2x<6[6:3],3,4h[4:1],
,,,5x<2[4:3],5,4h[8:1],,
B2,B1,B8,B7,B6,,8x<4[8:3],3,
3h[4:1],,,,1v4[8:1],8v5[8:1],1,8,
3x,1b,{4}1b/Cf,
{8}4,5,4,5,
3h[8:1]/6h[8:1],,3h[8:1]/6h[8:1],,6,3,6,3,
4h[8:1]/5h[8:1],,4h[8:1]/5h[8:1],,3,4,5,6,
5,4,3,4,5,6,54,3,
4h[4:1]/5h[4:1],,,C,34,3,45,4,
5/6<1[8:1],5,6,,65,6,54,5,
4/3>8[8:1],4,3,,27,2,45,4,
45,5,63,6,{16}1b,1,1,1,{8}1b-5[8:1],2b,
1/8b-4b[8:1],7b,8/1b,,{2}3>8[8:1]/6,
{8}54,{16}5,6,,6,5,,{2}3>8[8:1]/5,
{8}45,{16}4,3,,3,4,,{2}6<1[8:1]/4,
{8}54,{16}5,6,,6,5,,{2}4>1[8:1]/6,
{8}45,{16}4,3,,3,4,,1,5,1,5,7,5,7,5,
3,5,3,5,1,5,3,7,3,7,4,8,4,8,6,8,
6,8,2,8,2,8,4,8,{8}4x,73,E3/B3/B2/E8/B8/B7,,
62,E3/B2/B3/E6/B5/B6,,51,48,73,5-1[8:1]/1,63,
4-8[8:1]/5b,,4b,,2h[8:1]/7h[8:1],,{16}5,3,4,3,
6,4,5,4h[8:1],,3,6,5,6,2,5,4,5qq8[5:2],1,5,4,
{4}5,,2h[8:1]/7h[8:1],{16}4,6,5,6,
3,5,4,5h[8:1],,6,3,4,3,8,4,5,4>8>4[5:2],7,4,5,
{4}4,,7h[8:1]/2h[8:1],{16}5,3,4,3,
6,4,5,4h[8:1],,3,6,5,6,2,5,4,5>1pp6[5:2],1,5,4,
{4}5,,{8},37,E7/B7/B6/E4/B4/B3,,
26,E7/B6/B7/E2/B1/B2,,48,51,62,73,18,
5s1[8:1]/4z8[8:1],,{24}5b/4b/E4/E6,B3`B6,B7`B2,{8}E8`E2,Ch[8:1],,{16}8,6,5,6,
1,5,4,5,2,4,3,4,1,5,4,5,8,6,5,6,
{24}7-3[8:1],8,1,2,3,4,{4}5/7b,Ch[8:1],{16}2,6,5,6,
1,5,4,5,{4}1-5[8:1],{8}1b/7-3[8:1],6,7b/1-5-8-4[8:2],2,
{4}1b,A4f,Ch[8:1],{16}1,6,5,6,
2,5,4,5,1,4,3,4,2,5,4,5,1,6,5,6,
{24}7-3b[8:1],8,1,2,3,4,{4}5/7b,{16}4,5,4,5,3,6,3,6,
2,7,2,7,1,8,1,8,{8}1,37,26,18,
5-1[8:1]/4-8[8:1],,5b/4b,,2h[4:1]/4,5,6,7,
1h[4:1]/2,3,4,5,56,1,34,8,
56,B1/B2/E2,B1/B2/E2,,Ch[8:1],,8/2b-6[8:1],3,
2,,4/7b-3-1-5[2:1],1,7b/3,2x,2x,2x<7[8:1],
3<6[8:1]b,,,,7h[8:1]/3bv8[8:1],,37,6,
5b-1[8:1]/1,2,5/3b-7-3-1-5[2:1],4,3b,5,6,7,
8h[4:1],,,C,1/7b-3[8:1]b,6,7,,
5,8,2v5[8:1]/6,7,2b,8-4-8[8:3]b,2,1h[4:1],
,,,,2h[8:1]/6b<1[8:1],,62,3,
4b-8[8:1]/8,7,4/6b-2[8:1],5,6,1-5[8:1],8-4[8:1],1,
8,B1/B2/E2,{4}B1f/B2f/E2f,4h[8:1]/5h[8:1],5h[8:1]/4h[8:1],
{16}4h[8:1]/5,,,5,{8}4h[8:1],5,36,36,3h[8:1]/6h[8:1],,
{16}2h[8:1]/7,,,7,2h[8:1],,7,,{4}1hb[8:1]/8hb[8:1],8h[8:1]/1h[8:1],
{16}1h[8:1]/8,,,8,{8}1h[8:1],8,27,27,2h[8:1]/7h[8:1],,
{16}3h[8:1]/6,,,6,3,,{24}6,5,4,{8}3b,8,21,3,
2h[8:1]/1,,7-3[8:1]/8-4[8:1],61,
7b/8b,,56,18,
34,81,6-2[8:1]/5-1[8:1],21,5b/6b,,{16}3,5,3,5,3,6,3,6,3,7,3,7,1b,1,1,1,{8}1bv4[8:1],2b,
1/8bv5b[8:1],7b,8/1b,,,73,E7/E3`B6`B2`B5`B1`E1`E5,,
62,E7/E3`B7`B3`B8`B4`E5`E1,,3b,1xb/E1```B8```B7```E7,6xb/E6```B5```B4```E4,3xb/E3```B2```B1```E1,8xb/E8```B6```B7```E6,
5xbs1[8:1]b/4xbz8[8:1]b,,{24}5b/4b/E4/E6,B3`B6,B7`B2`Ch[16:1],{8}E8`E2`A1`A8,2v4[8:1],4p8[8:1],2,6,
6,7<4[8:1],7,1-5[8:1],8-4[8:1],1-3[8:1],8-6[8:1],1,
8,,2-5[8:1],5-2-7[8:1],2,6,
6,5-1[8:1]b,5,2-6[8:1],2,8v5[8:1]b,1v4[8:1],8^6[8:1],1^3[8:1]b,8,
1,E7,C,E3,7v5[8:1],5q1[8:1],7,3,
3,2>5[8:1]b,2,8-4[8:1],1-5[8:1]b,8-6[8:1],1-3[8:1]b,8,
1,Ch[8:1]f,,,3b/6b,,1b/2b,6b/5b,
3bv8[8:1]b/4bv7[8:1]b,8b/7b,3b/4b,,6b/3b,,1b>5[8:1]/5b<1[8:1],3b/7b,
1b/5b,,Cf/B3/B2/E3/B6/E7/B7,,2-4[8:1],1-7[8:1],2-6[8:1],
1-5[8:1]b,2<4[4:1]b,1,2,,7-5[8:1],8-2[8:1],7-3[8:1],
8-4[8:1]b,7>5[4:1]b,8,7,,3-1[8:1],4-6[8:1],3-7[8:1],
4-8[8:1]b,3<1[8:1]b,4,3,,1x/2x^5[8:1],3,1^6[8:1]/2,8,
12,B4/B3/E4,B4/B3/E4,{16}7,8,7/E7`B6`B5,,2,1,2/E3`B3`B4,,6,5,
6/E7`B7`B8,,3,4,3/E3`B2`B1,,5x,4,5,4,6,3,6,3,
7,2,7,2,8,1,8,1,8,1,{32}8b-4[8:1]b,7,6,5,4,3,2,1,{4}8b,
{32}1b-5[8:1]b,2,3,4,5,6,7,8,{4}1b,{8}5bx/4bx,3b/6b,2b/7b,1b/8b,
5b^8[8:1]b/4b^1[8:1]b,,{24}5b/4b/A4/A5,A3`A6,A2`A7,A1`A8,,,Ch[24:1]f/E1/E2/E3/E4/E5/E6/E7/E8/B1/B2/B3/B4/B5/B6/B7/B8/A4/A5/D5,,,,,,,,,,,,,,,,,,,,
