&title=Plasma Gun
&artist=memme
&first=0
&des=HL gun
&lv_5=14
&inote_5=(180)
{1},,
{8}1,1,8,8,2,2,7,7,3/7,3,6,6,4,4,5,5,5/2,2,8,8,1,1,7,7,7/3,3,5,5,4,4,6,6,
{4}65,65,34,34,12,12,78,78,{8}6,6,3,3,{16}4,5,4,5,4,5,4,5,{1}4q7q2[2:1],
{8}18,2,3,{16}6-8[8:1],5,6,5,6,,,,,,12,3,4,5,6,7,1,8,1,,,,
{8}6b,6b,34,2,1,{32}7,5,3,1,8,6,4,2p5[270#8:1],,,,,{8},,6x,7,8,{16}1,3,
{32}5,6,7,8,1,3,5,7,{8}1,,
{8}81,7,6,{16}3-1[8:1],4,3,4,3,,,,,,87,6,5,4,3,2,8,1,8,,,,
{8}3b,3b,65,7,8,{32}2,4,6,8,1,3,5,7q4[270#8:1],,,,,{8},,3x,2,1,{16}8,6,
{32}4,3,2,1,8,6,4,2,{8}8x/1x,2h[8:1],3h[8:3],,,4h[8:3],,,5h[8:2],,
{8}8,7,6,5,{16}4,3,2,1,4,3,2,1,{8}4h[8:3],,,3h[8:3],,,2h[8:3],,1h[8:4],,,,,,
{16}6,5,4,3,{8}2h[8:3],,,7h[8:3],,,5h[8:3],,,4-1[8:1],,,8-5[8:1],,8,,
{8}34,,2,6,3,7,4,8h[4:1],,1h[4:1],,{16}3,4,3,4,2,1,2,1,2,1,
{16}2,1,3,8,4,7,5,6,3,4,2,5,1,6,8,7,1,2,3,4,2,3,4,5,3,4,5,6,4,5,6,7,
{16}1,2,8,7,2,3,7,6,2,3,7,6,3,4,6,5,4,3,7,8,4,3,7,8,2,1,5,6,2,1,5,6,
{16}2,1,8,7,4,3,2,1,6,5,4,3,8,7,6,5,1,8,1,8,2,7,2,7,3,6,3,6,{24}4,5,4,5,4,5,
{8}45,34,23,12,81,{32}6x,4x,2x,8x,6x,4x,2x,,{1}8xp2p4[8:5],
{8},45,7,2,{16}1,8,1,,3,3,3,3,3,,
{16}5,6,7,8,1,,1,,{24}3,4,3,4,3,,2,1,2,1,2,,
{8}56,4,3,{16}2-5[8:1],1,2,8,8,,6,6,3,,
{16}1-5[8:1],,7,7,1-3[8:1],,8,8,1-6[8:1],,7,7,1,,
{8},81,3,6,{16}5,4,5,,7,7,7,7,7,,
{16}1,2,3,4,5,,5,,{24}7,8,7,8,7,,6,5,6,5,6,,
{8}12,8,7,{16}6-1[8:1],5,6,4,4,,2,2,7,,
{16}5-1[8:1],,3,3,5-7[8:1],,4,4,5-2[8:1],,3,3,5,,,,
{16}78,,2,3,2,,45,,1,8,2,7,1w5[1:1],,5b,
