&title=HEPT-GRAM
&artist=モリモリあつし/uma
&first=0
&des=NaOH
&clock_count=6
&lv_5=14
&inote_5=(190){4},,,,,,,,,,,,
{8}
6h[4:3]/4,,,,,,5,,4,,6,5,7h[4:3]/4,,,,,,8,,1,,8,1,
2h[4:3]/8,,,,6,5,4,,35,,2,2,{12}5,4,6,{8}5,7,4,6,3,5,2,4,1,28,
37,3,36,3,35,3,35,5,25,5,15,5,5b/8b-3[8:1],,,6b-1[8:1],,,
2bz6[4:1],,,8b-4[8:1],,,
3,3,26,2,15,1,26,6,37,7,48,8,
{16}3,7,3,7,2,6,2,6,1,5,1,5,1>7b[4:1],,,,,,,,Cf,,,,
{8}
7x<4[8:1]/3x>8[8:1],,7-3[8:1]/3,,7,,
2x>5[8:1]/6x<1[8:1],,2-6[8:1]/6,,2,,
3v8V25[4:2]/7,,5,6,7,8,
1qq5[4:2],,,,4,3,
2-6[8:1],,2-4[8:1]/8-4[8:1],,28,,
7-3[8:1],,7-5[8:1]/1-5[8:1],,7>6b[8:3]/1,,
47,,,8,1,26,
3^6[8:1]/7,,8w4b[8:1],,8b,,
7x-5[8:1],,7-3[8:1]*-1[8:1],,7,,
2x-4[8:1],,2-6[8:1]*-8[8:1],,2<4b[8:3],,
2/7h[8:3],,,,8,7,
2-5[8:1]/6-1[8:1],,,,{16}4,,6,6,
{8}3-1[8:1],,8-4[8:1]*-6[8:1]/3,,8,,
5-1[8:1],,2-4[8:1]*-6[8:1]/5,,2,,
{16}2,1,2,1,2,1,2,1,{24}2-6[8:1],3,4,5,,,
{4}2b/7b-4[8:1],{24}1b/7b,,,,,,1b/8b-4[8:1],27,36,45,,,
{4}2bz6<5s1b[4:18]/8b/Cf,,,,,,,,,,,,,,,,,,,,
{8}
6h[8:3],,,4,4h[4:2],,E2/B2,,B7/E8,,
2h[8:3],,,5,5h[4:2],,B6/E7,,B3/E3,,
7h[8:3],,,4,4h[4:2],,E2/B2,,B7/E8,,
4h[8:3],,,6,6,,Cf/B7/B6/E7/B2/B3/E3,,,,
3xqq4qq5[4:3],,,6,6,,6-1[8:1],,6,,
6xpp5p4[4:3],,,4,4,,3^8[8:1],,3,,
2xpp1pp8[4:3],,,7,7,,7-4[8:1],,7,,
7xqq8q1[4:3],,,1,1,,2^5[8:1],,2,,
2xqq3q5b[4:3]`2!qq3[8:3],,,6,6,,7^2[8:1],,7,,
7xpp6p4b[4:3]`7!pp6[8:3],,,3,3,,2^7[8:1],,2,,
3xpp2p8b[4:3]`3!pp2[8:3],,,7,7,,6^3[8:1],,6,,
8xq1[8:3],,,2,3,4,{16}5b/6b,,,1b/8b,,,3b/4b,,
{8}
6x-4[8:1],,6-8[8:1]/3v8V25b[8:3],,6-4[8:1],,6-1[8:1],,6,,
3x-5[8:1],,3-1[8:1]/6v1V74b[8:3],,3-5[8:1],,3-8[8:1],,3,,
6x-4[8:1],,6-8[8:1]/3v8V25b[8:3],,6-4[8:1],,6-1[8:1],,6,,
5<8[8:1],,{24}15,2,3,4,,,4V28[4:1],,,,,,{8}8V24b[4:1],,C,,
7x-1[8:1],,7-5-8-4b[4:2]/2-5[8:1],,2-8[8:1],,2-4[8:1],,2,,
2x-8[8:1],,2-4-1-5b[4:2]/7-4[8:1],,7-1[8:1],,7-5[8:1],,7,,
6x-8[8:1],,6-4-7-3b[4:2]/1-4[8:1],,1-7[8:1],,1-3[8:1],,1,,
6^3[8:1],,{24}26,1,8,7,,,{16}7^2[8:1],,,,{16}3b,,,5b,,,7b,,
{4}5bxv2-4^5[4:8]*v8-6^5[4:8]/Cf,,,,,,,,,,,,{32}2xh[4:5],6xh[32:39],,,,,,,
{4},,,,,3h[4:2],4,5,6h[8:3],{8},4,5,4,
{4}7h[4:2],,6,5h[4:2],,4,4h[4:2],,{12}E3,B2,B1,E1,,,{8},7,7h[4:1],,
6V42V86[4:4]*V82V46[4:4],,,,,,,,,,,,8-3V14[4:4]*-5V74[4:4],,,,,,,,,,,,
5<7[4:1],,,,3,,4>2[4:1],,,,6,,5<8[4:1],,,,3,,4>1[4:1],,,,6,,5<4[4:4],,,,,,,,,,,,
1h[4:1],,3h[4:1],,5h[4:1],,7h[8:3],,,5,5,,
4>1[4:1],,,,5,,5q2[8:3],,,,6,,6<1[4:1],,,,{12}E2,E3,E4,E5,,,{8},6,
6,,4,,35,,26,,8,,17,,26,,2v5V31[4:4]/6v1V75[4:4],,,,,,,,,,,,
{8}Ch[4:5],,,,,,,,,,,,3x-5[8:1],,7-4[8:1]/3,8,7-1[8:1],1-5-3[4:1],
2-6b[8:1],,,,37,{16}37,26,
{8}1-5[8:1]/5-7[8:1],,1>4[8:1]/5,,1,,1-5[8:1]/7-5[8:1],,1v4[8:1]/7v4[8:1],,7>5b[4:1]/1,,
2h[8:3]/7,,,,37,26,5/1h[4:1],,{24}5-1[8:1],26,37,48,,,5b,,,,,,
{8}7-4[8:1],,7-3[8:1]/2-8[8:1],,27,,2v5[8:1],,2>5[8:1]/6<1[8:1],,2/6qq7[8:3],,
26,,,1,2,3,4>1[8:1]*v7[8:1]/5,,,,{16}6,,16,25,
{8}4-7[8:1]/3,,3V15[4:1]/4,,36,,6-8[8:1],,6-2[8:1]/4-2[8:1],,6>7b[8:3]/4,,6/1h[8:3],,,,
{12}2x/8x,37,46,{8}5x-1[8:1],1-5[8:1],3w7b[8:1],,Cf,,
{8}2x-4[8:1],4V26[4:1],2,7>4b[4:1],7,,5pp4[8:3],,35,2,1>4[8:1],,
1<4[16:3]/8,,21,2,3-7[8:1],,7s3b[4:1],,,,2x,{16}1,1,
{8}7-5[8:1],,2-8[8:1]/7,3,2V48[4:1],,7-5[8:1],,7-3[8:1]*-1[8:1],,7,,
2-4[8:1],4-8-3[4:1],2,6,6h[4:1],,{32}8b,1,2,3,4,,,,1b-5b[8:1]*-4b[8:1],8,7,6,5,,,,
1b/Cf,,,,,,,,
{8}7x-5[8:1],5V73[4:1],7,2<5b[4:1],2,,4qq5[8:3],,64,7,8<5[8:1],,
18,2,3-6[8:1],6-3-8[4:1],3,8>6b[4:1],Cf,,,,{16}7x,,7x,8x,
{8}1x-5[8:1],1,2-6[8:1],2,1-7[8:1],1,2-4[8:1],2,8-6[8:1],8,1,1,
{32}2b/8b,3,4,5,6,7,8,1,2b,3,4,5,6,7,8,1,
{4}2b-7[8:1]/6b-3[8:1],2bV84b[4:1]/6bV48b[4:1],,,
{4}6^3^6[4:4]/2h[4:2],,,1h[4:2],,,7p2q7[4:4]/2h[4:2],,,1h[4:2],,,
7^2^7[4:4]/3h[4:2],,,4h[4:2],,,E2,E3,E4,E8,E7,E6,
8<4<8[4:4]/3h[4:2],,,1h[4:2],,,1>5>1[4:4]/6h[4:2],,,8h[4:2],,,
8q5p8[4:4]/3h[4:2],,,1h[4:2],,,
26,37,48,1-6[8:1]/5-2[8:1],1b/5b,,
{8}1>3[8:1]/8,,1-4[8:1]/7,,16,,8<6[8:1]/1,,8-5[8:1]/2,,83,,
{8}1>4[8:1]/8,,1q5[8:1]/7,,16,,8<5[8:1]/1,,8p4[8:1]/2,,83,,
{8}1>3[8:1]/8,,1-4[8:1]/7,6,15,,8<6[8:1]/1,,8-5[8:1]/2,3,84,,
{8}1>4[8:1]/8,,1q5[8:1]/8,7,16,,8<5[8:1]/1,,8p4[8:1]/1,2,83,,
{8}1>3[8:1]/8,8,1-4[8:1]/7,7,1-5[8:1]/6,6,8<6[8:1]/1,8,8-5[8:1]/2,2,8-4[8:1]/3,3,
{8}1>3[8:1]/8,1,1-4[8:1]/7,7,1-5[8:1]/6,6,8<6[8:1]/1,8,8-5[8:1]/2,2,8-4[8:1]/3,3,
1-5[8:1]/8,1,7-4[8:1]/1,7,3-8[8:1]/7,3,6-1[8:1]/3,6,46,3,37,37,
{24}1-5[8:1],2,3,8-4[8:1],7,6,{8}1b>4[8:1],8b<5[8:1],1b,8b,1bw5b[8:1],,
B1/Cf/B6/B4/B5,,
