&title=Rocket Ride
&artist=ned
&first=0.56
&des=SpaceX
&lv_5=13
&inote_5=(128)
{1},
{4}4h[4:3],E5,,E7,
{4}8h[4:3],E1,,E3,
{4}4h[4:3],E5,,E7,
{4}8h[4:3],E2,B6f,,
{4}5h[2:1],,E5,,
{16}2,,,34,,,5,,6`E5,,,,,,,,
{4}6h[2:1],,E5,,
{16}7,,,65,,,4,,3^8[8:1]`E5,,,,,,,,
{4}5h[2:1],1,E5,3,
{16}2,,,34,,,5,,6`E5,,,,7,,,,
{4}4h[2:1],8,E5,6,
{4}2h[4:1],4q1[4:1],7<3[4:1]`E5,,
{4}1h[2:1],8-3[8:1],E1,5,
{4}1h[2:1],8q5[8:1],E1,7,
{4}8h[2:1],1-6[8:1],E1,4,
{4}8h[2:1],1p4[8:1],E1,2,
{4}5h[2:1],4^7[8:1],E5,2,
{4}5h[2:1],4q1[8:1],E5,3,
{4}4h[2:1],5^2[8:1],E5,8,
{16}5h[8:3]/6h[8:3],,,,,,,,2b,,2b,,4,5,3,4,
{16}25,,1,8,,3,4,2,,6,5^2[8:1],7,,,8,8,
{16},,5,5,4,,2,1,,4^1[8:1],5,3,6,4,,,
{16}56,,8,1,,6,5,7,,3,4^7[8:1],2,,,1,1,
{16},,4,4,5,,7,8,,5q1[8:1],4,6,3,5,,,
{16}28,,1,8,,3,4,2,,6,5^2[8:1],7,,,8,8,
{16},,5,5,4,,2,1,3-8[32:3],7-4[32:3],3,7,,,,,
{16}51,,8,1,,6,5,7,,3,4^7[8:1],2,,,1,1,
{16},4,4,5,3,,7,7,1,5,2,6,3pp4[16:5],7pp8[16:4],4,8,
{16},,,,,,,,4,,3/5<1[8:1],,46,,{64}E5f,,,,,,,,
{8},,2b/5b,3,4^1[8:1]/7,6,54,7h[4:1],
{8},8,25,3,4/8,7x,{16}6x^1[8:1]/2x,,4x,5x,
{8}3,4,4>8[16:3],,1>5[16:3],,7,,
{8}6<4[4:1],6,,,{16}E6,,,B7/E8,,,E1/B1,,
{8}E3f,,74,6,5^8[8:1]/2,3,45,2h[4:1],
{8},1,74,6,5/1,2x,{16}3x^8[8:1]/7x,,5x,4x,
{8}6h[4:2],,E1/B8,,C,4-8[8:1],5,4/6<4[16:5]*q4[16:5],
{8},,,,,8x,1x/2x,3x,4^1[8:1],5,6/4qq5[4:1],7,4/8h[4:1],,
{8},7,4-8[8:1],5,6/4qq5[4:1],7,4/8xh[8:1],,
{16}8x,,7x,6x,{8}4^1[8:1],5,6/4qq5[4:1],7,4/8,,6<4[8:2],6h[8:2],
{8},,,5,,6x,8x/7x,1x,5^8[8:1],4,3/5pp4[4:1],2,5/1h[4:1],,
{8},2,5-1[8:1],4,3/5pp4[4:1],2,5/1xh[8:1],,
{16}1x,,2x,3x,{8}5^8[8:1],4,3/5pp4[4:1],2,5/1x,,3>8[8:1],8<5[32:5]*p4[32:5],
{8},,,,{16}2,2,1h[8:1]x,,4x,5,3x,4,
{16}2,1,2,1,3,3,4,2,7,8,7,8,6,6,5,7,
{16}1,5,2,6,3,7,4,8,4,8,3,7,2,6,1,5,
{16}3,4,3,4,2,2,1,3,6,5,6,5,7,7,8,6,
{16}5,7,4,6,3,5,2,4,3,3,4,4,5,5,6,6,
{16}2,1,2,1,3,3,4,2,7,8,7,8,6,6,5,7,
{16}1,5,2,6,3,7b,4,8b,4,8,3,7,2,6,1,5,
{16}3,4,3,4,2,2b,1,3,6,5,6,5,7,7,8,6,
{16}5,7,4,6,3,5,2,4,1,7,3,5,2,8<1[16:51],Cf,,
{1},
{64}B8,B7,,,,,,,,,,,,,,,{4},,,
{64}E3,B3,,,,,,,,,,,,,,,{4},,,
{64}E1,B8,,,,,,,,,,,,,,,{4},,,
{8}4^1[8:1],,5,,6^3[8:1],,7,,
{8}8^5[8:1],,1,,2^7[8:1],,3,,
{8}4^1[8:1],,5,,6^3[8:1],,7-4[8:1],,
{8}1-5[8:1],,2,,{16}3,4,,6,5,,47,,
{8}4b-1[8:1]/2b,3,4/8^3[8:1],7,{16}6/8,6,,4,5,,6,,
{8}5-8[8:1]/7,6,5/1^6[16:2],2,{16}3/1,3,,5,4,,{16}4x,,
{8}4-1[8:1]/2,3,4^7[8:1]/8^3[8:1],7,4/8,,2>4[8:1],4q1[16:4]*<8[16:4],
{8},,,,,8x,1x/2x,3x,4^1[8:1],5,6/4qq5[4:1],7,{16}4/8,8,
{16},7,7,,{8}6,4-8[8:1],5,6/4qq5[4:1],7,{16}4/8x,8,
{16},7,7,,6x,5x,{8}1q5[8:1],7-4[8:1],1p8[4:1],7,1,,6b>2[8:4],1bp4[8:3],,,,,,
{16}2,4,3,5,4,6,5h[4:1],,,,8,,4,4h[8:1],,5,4,6h[4:1],,,4,4,
{16}5,3,,7h[4:1],,1,,5h[16:3],,,3h[8:1],,1h[8:1],,7h[8:1],,
{16}2,1,2,1,3,4,3,4,2,1,3,4,2,1,4,5,
{32}E8,B8,B1,E2,E4,B4,B5,E6,E7,B7,B8,E1,E3,B3,B4,E5,
1x,2,3,4,5,6,7,8,2x,3,4,5,6,7,8,1,
{16}2x/5xh[4:1],,,,8,,4,4h[8:1],,5,4,6h[4:1],,,4,4,
{16}5,3,,7h[4:1],,1,,5h[16:3],,,3h[8:1],,1h[8:1],,7h[8:1],,
{16}2,4,3,7,5,6,3,4,2,8,1,7,4,5,3,6,
{32}1x,2,3,4,5,6,7,8,3x,4,5,6,7,8,1,2,5x,6,7,8,1,2,3,4,{16}7xp3[1:1],8x,1x-5[8:7],2x,
