&title=Try again (WACCA Edition)
&artist=USAO
&first=0
&des=KoishiKnight||青初段
&freemsg=From WACCA┓MASTER Level:12.7┓REMASTER Level:13.1
&wholebpm=170
&first_1=
&first_2=
&first_3=
&first_4=
&first_5=
&first_6=
&amsg_first=
&tap_ofs=
&hold_ofs=
&slide_ofs=
&break_ofs=
&des_1=KoishiKnight
&des_2=KoishiKnight
&des_3=KoishiKnight
&des_4=KoishiKnight
&des_5=KoishiKnight
&des_6=青初段
&amsg_content=
&lv_1=2
&lv_2=4
&lv_3=8
&lv_4=10+
&lv_5=12+
&lv_6=13
&inote_1=(170)
{8},,,
{1}1b,1,2,2,3,3,4,4,5-8[1:1],,3,3,4,4,5,5,
{1}6,6-3[1:1],,3,,2-7[1:1],,7,,1,1,2,2,3,3,4,
{1}4,5h[1:1],,6h[1:1],,7h[1:1],,8h[1:1],,1-5[1:1],,2-6[1:1],,3-7[1:1],,4-8[1:1],
{1},1,2,3,4,5,6,7,8,1b,2,3,4,5,6,7,
{1}8,1,1,2,2,3,3,4,4,5,5,6,6,7,7,8,
{1}8,1,2,3,4,5,6,7,8,1,
{1},,,,E
&inote_2=(170)
{8},,,
{2}1b,,8,8,7,7,6,6,5,5,4,4,3,3,2,2,
{2}1b-5[2:1],,7,7,6,6,5,5,4,4,3,3,2,2,1,1,
{2}8-4[2:1],,2,2,3,3,4,4,5,5,6,6,7,7,8,8,
{2}1,1,{1}2-6[1:2],,,7-3[1:2],,,,
{2}1,2,3,4,5,6,7,8,8,7,6,5,4,3,2,1h[2:1],
{2},2,3,4,5,6,7,8,1,2,3-6[1:1],,,,7-2[1:1],,
{2},,3,4,5,6,3,4,5,6,3-8[1:1],,,,6-1[1:1],,
{2},,2b,2,{4}3,3,{2}3,4,4,{4}5,5,{2}5,6,6,{4}7,7,{2}7,8,8,{4}1,1,{2}1,
{2}2,2,3,3,3h[2:1],,4,4,4h[2:1],,5,5,5h[2:1],,6-3[2:1],,
{2}2,2,1,1,1h[2:1],,8,8,8h[2:1],,7,7,7h[2:1],,6,6,
{2}5,5,4,4,3,3,2,2,1,1,8,8,7,7,6,6,
{2}5,,
{1},,,,E
&inote_3=(170)
{8},,,
{4}1b-4[2:1]/8b-5[2:1],,,,3h[4:1],,3,,4,4,4,,6h[4:1],,6,,
{4}5,5,5,,1,2,3,4,8,7,6,5,4,3,2,{8}1,8,
{4}1b-5[2:1],,,,7b,7b,2b,2b,8h[8:1],7h[8:1],6h[8:1],5b,3,3/4,6,5/6,
{4}2,1/2,7,7b/8b,1b,7,6,5,4h[8:1],3h[8:1],2h[8:1],1b,2b,2b,7b,7b,
{4}1^4[2:1],,,,8,8,7,7,6,6,5,5,4,4,3,3,
{4}2,2,1,1,1,2,3,4,1,2,3,4,8,7,6,5,
{4}8,7,6,5>6[1:2],
{1},,,4<3[1:2],,,,
{4}7,7,6,6,5-1[1:1],,,,,,,,2-6[1:1],,,,
{4},,,,7-3[1:1],,,,,,,,1,2,3h[4:3],,
{4},,8,8,7,7,6,6,5,5,4,4,3,3,2,2,
{4}1,1,2,3,4,4,3,3,2,2,1,1,8,8,7,7,
{4}6,6,5,5,1,2,3,4,1,2,3,4,1,2,3,4,
{4}1,2,{8}3,4,3,4,{4}1,1,1,1,8,8,8,8,2,2,2,2,
{4}7,6,5,4,1b,8,2,7,1,8,2,7,1b,7,2,8,
{4}1,7,2,8,4b,5,3,6,4,5,3,6,4b,6,3,5,
{4}4,6,3,5,1b,1,8,8,2,2,7,7,1,1,8,8,
{4}2,2,7,7,4,4,5,5,3,3,6,6,4,4,5,5,
{4}3,6,4,5,2h[4:1],1,7h[4:1],8,3h[4:1],4,6h[4:1],5,
{4}4h[4:1],3,5h[4:1],6,1h[4:1],2,8h[4:1],7,2h[4:1],4,7h[4:1],5,3h[4:1],1,6h[4:1],8,
{4}4h[4:1],2,5h[4:1],7,1h[4:1],3,8h[4:1],6,1,2,3,4,1,2,3,4,
{4}8,8,7,7,6,6,5,5,4,4,3,3,2,2,1,1,
{4}1,2,3,4,5,6,7-3[4:1],,,
{1},,,,E
&inote_4=(170)
{8},,,2h[8:1]/6h[8:1],,,,,
{8}8,8,,
{8}6,,6,,6/5,,6/5,,4/6,,3/5,,2/4-7[8:1],,,,3,,3,,3/4,,3/4,,5/3,,6/4,,7/5-2[8:1],,,,
{8}8,,1,,7,,2,,6,,3,,5,,4,,
{16}6,,3,,7,,2,,8,1,8,1,8,1,8,1,
{4}8bw4[2:1],,,,
{4}2b-5[8:1],1b,7b-4[8:1],8b,{8}3b-8[8:1],,6b-1[8:1],,4b-8[8:1],,5b,,
{8}7^4[8:1],,1,,2^5[8:1],,8,,7-4[8:1],,8,,2-5[8:1],,1b,,
{8}8b,,2-5[8:1],,7-4[8:1],,1,,{8}2b-6[8:1],,8b-4[8:1],,1b-5[8:1],,7b,,
{4}6b-1[8:1],5b,3b-8[8:1],4b,{4}5w1[4:1],,,3b-8[8:1]/7b-4[8:1],
{8},,2-5[8:1]/6-1[8:1],,,,3qq8[2:1]/7qq4[2:1],,,,,,,,2b/6b,,
{8}1-4[8:1]*-6[8:1],,,,8-3[8:1]*-5[8:1],,,,2pp5[2:1]/6pp1[2:1],,,,,,,,
{8}8,1,2/8b,,1,8,1b/7,,7,8,7b/1,,2,1,2b/8,,7,8,1b/6b,,2,1,3b/8b,,
{8}7p4[2:1]/2,,,,,1,1,,
{1}2>7[2:1]/7<2[2:1],,1s5[2:1]/5s1[2:1],,6v4[2:1]*V84[2:1],,1>5[2:1]/5<1[2:1],
{4}7/8,1/2,5/6,3-8[8:1]/4-7[8:1],,,,
{8}2,2,6,6,,4/7,,3/6,,2h[2:1]/5h[2:1],,,,,,
{8}3,3,7,7,1,,2q5[4:3],,6,6,6,,,,,,
{8}7,7/8,,2,1/2,,8qq4[8:5],,2,2,2,,,1<2[4:3],,,,,,,7,7,,
{16}6/5,,6,,6/4,,6,,6/8,,,,1/3,,3,,3/4,,,,3/1,,2,1,2,,,,5/6,,6,,6/4,,,,3/5,,3,,1/3,,,,
8/6,,6,,6/5,,,,6/8,,7,8,7,,,,3/1,,3,,3/4,,,,3/5,,3,,3/1,,,,
{4}2^5[2:1],,1,,7p3[2:1],,8,,1q6[2:1],,{16}7,,,,8,,,8,,,8,,,,2,,1/2,,,,
{16}3h[4:1]/8,,,,7,,,6,5,,,,5/3,,,,6h[4:1]/1,,,,2,,,3,4,,,,4/6,,,,1/3h[4:1],,,,4,,,3,5,,,,2/4,,,,8/6h[4:1],,,,5,,,6,4h[8:1],,,,7h[8:1],,,,
{8}1,,8,,2,,7,,3,,6,,4,,5,,
{16}3,,6,,2,,7,,1,8,1,8,1,8,1,8,
{4}1bw5[2:1],,,,
{4}8b-4[8:1],2-5[8:1],8-4[8:1],2-5[8:1],
{4}8-4[8:1],2-5[8:1],8-4[8:1],2-5[8:1],
{4}7b-4[8:1],1-5[8:1],7-4[8:1],1-5[8:1],
{4}7-4[8:1],1-5[8:1],7-4[8:1],1-5[8:1],
{4}8bp4[8:1],2^5[8:1],8p4[8:1],2^5[8:1],
{4}8p4[8:1],2^5[8:1],8p4[8:1],2^5[8:1],
{4}7b^4[8:1],1q5[8:1],7^4[8:1],1q5[8:1],
{4}7^4[8:1],1q5[8:1],7^4[8:1],1q5[8:1],
{16}8b-4[8:1],,,,2,,,,,,1,,1,,2,,3,,4,,,,7,,,,6,,,,5qq5[4:1]*pp5[4:1],,,,,,,,,,,,
{16}8,,8,,7,,6,,5,,,,2,,,,3,,,,4w8[4:1],,,,,,,,,,,,
{16}2,,2,,3,,4,,5,,,,8,,,,7,,,,6pp1[8:5]/5qq2[8:5],,,,,,,,,,,,,,,,,,
{4}2/1,8/7,4/3,6-1[8:1]/5-2[8:1],,,
{16},,7/1,,8,,2,,6,,4/6,,,,3,,,,2,,,,1V35[4:1]*V75[4:1],,,,,,,,,,,,
{16}2/8,,1,,7,,3,,5/3,,,,6,,,,7,,7,,7^4[4:1],,,,,,,,,,,,
{8}2,2/1,,7,8/7,,1pp5[8:5],,7,7,7,,,8>7[4:3],,,,,,,,,,
{16}2h[8:1],,,,5h[8:1],,,,1,,,,8/6,,6,,6/5,,,,6/8,,7,8,7,,,,4/3,,3,,3/5,,,,6/4,,6,,8/6,,,,
1/3,,3,,3/4,,,,3/1,,2,1,2,,,,6/8,,6,,6/5,,,,6/4,,6,,6/8,,,,
4/2,,2,1,2,,,,2/4,,2,,1/2,,,,8/7,,7,,7/1,,,,2/8,,2,,2/4,,,,
5/7,,7,8,7,,,,7/5,,6,,5/6,,,,2/4,,2,,2/1,,2,,2,,,,8b,,,,
{1},,,,E
&inote_5=(170)
{8},,,7h[8:1]/3h[8:1],,,,,
{8}1h[1024:1],1h[1024:1],,
{8}5/3,,4/2,,3,5,3,5,6/4,,7/5,,6,4,6,4,2/5,,1/4,,2,6,2,6,7/4,,8/5,,7,3,7,3,
{8}8,8,1,1,7,7,2,2,6,6,3,3,5,5,4,4,
{16}5,4,6,3,7,2,8,1,{32}8,7,6,5,4,3,2,1,8,7,6,5,4,3,2,1,
{4}8bqq1[2:1]/4bqq5[2:1],,,,
{4}1b^4[8:1]*^6[8:1],1b,1bw5[8:1],1b,{8}7b-4[8:1]/3,7,2b-6[8:1],2,8b-4[8:1],8,1b,,
{8}2-5[8:1],6,2,8,7-4[8:1],3,7,1,2-6[8:1],4,2,8,7-3[8:1],5,7b/1bw5[8:1],,
{8}1b,,8-4[8:1],8,2-5[8:1],2,6,,{8}7b-3[8:1],7,8b-4[8:1],8,1b-5[8:1],1,2b,,
{4}8b^5[8:1]*^3[8:1],8b,8bw4[8:1],8b,{4}5w1[4:1],,,3b-8[8:1]/7b-4[8:1],
{8}3/7,,1^4[8:1],,6q1[8:3],,2-5[8:1],,2p8[8:3],,7-4[8:1],,7,,6b-1[8:1]/2b-5[8:1],,
{8}6/2,,8^5[8:1],,3p8[8:3],,7-4[8:1],,7,,2z6[4:1],,6z2[4:1],,,,
{8}8-4[8:1],8,1b/8,,2-6[8:1],2,2/5b,,7-3[8:1],7,7/4b,,2-5[8:1],2,2/6b,,8-3[8:1],8,8/4b,,1-6[8:1],1,1/5b,,
{8}3s7[4:1]/7s3[4:1],,,,,8h[1024:1],8h[1024:1],,
{1}2>7[2:1]/7<2[2:1],1s5[2:1]/5s1[2:1],6v4[2:1]*V84[2:1],1>5[2:1]/5<1[2:1],7-1[2:1]/8-4[2:1],3v5[2:1]*V15[2:1],2V48[2:1]/7V51[2:1],
{4}7h[8:1]/8h[8:1],1h[8:1]/2h[8:1],5h[8:1]/6h[8:1],3>6[2:1]/4q5[2:1],3/4,,,
{8}2-6[8:1],8-4[8:1],2,8^3[4:1],,3^6[4:1],,6^1[4:1],,1pp5[8:3]*qq5[8:3],,,,,,
{8}7^4[8:1],1-5[8:1],7-3[8:1],1,7,,2^5[8:1],,2,8,8qq4[8:3]*pp4[8:3],,,,,,
{8}2,7-3[8:1],,7,1-4[8:1],,1-6[8:1],,1,3,3q5[8:5],,,5,,5<4[8:5],,,,,7h[1024:1],7h[1024:1],,
{16}7/4,,6,,2/5,,1,,4/8,,,,2/5,,3,,7/4,,6,,5/1,,{24}3,4,3,{16}4,,,,4/7,,6,,2/5,,3,,8/4,,7,,1/6,,,,
7/4,,6,,2/5,,3,,4/8,,{24}6,5,6,{16}5,,,,5/2,,3,,7/4,,6,,2/5,,1,,8/4,,,,
{4}2qq6[2:1],,6,,7p4[2:1],,4,,3q5[2:1],,{16}5,,,,7,,,7,8,,7,,,,1,,5/2,,,,
{16}7-4[8:1]/8,,,,7/4,,,3,5,,6/3,,7/3,,3/8,,1/2-5[8:1],,,,2/5,,,6,4,,3/6,,2/6,,6/1,,8/7^4[8:1],,,,7/3,,,2,5,,2/6,,3/7,,3/8,,1/2^5[8:1],,,,2/6,,,7,{32}4h[64:1],,,,8h[64:1],,,,2h[64:1],,,,6h[64:1],,,,
{8}1,1,8,8,2,2,7,7,3,3,6,6,4,4,5,5,
{16}4,5,3,6,2,7,1,8,{32}1,2,3,4,5,6,7,8,1,2,3,4,5,6,7,8,
{4}1pp8[2:1]/5pp4[2:1],,,,
{4}8b-6[8:1]/1b,8-4[8:1]/5h[8:1],8-6[8:1]/2h[8:1],8-4[8:1]/5h[8:1],
{4}8-6[8:1]/2h[8:1],8-4[8:1]/5h[8:1],8-6[8:1]/2h[8:1],8-4[8:1]/5h[8:1],
{4}1b-3[8:1]/8b,1-5[8:1]/4h[8:1],1-3[8:1]/7h[8:1],1-5[8:1]/4h[8:1],
{4}1-3[8:1]/7h[8:1],1-5[8:1]/4h[8:1],1-3[8:1]/7h[8:1],1-5[8:1]/4h[8:1],
{4}7b-5[8:1]/1b,7-3[8:1]/4h[8:1],7-5[8:1]/1h[8:1],7-3[8:1]/4h[8:1],
{4}7-5[8:1]/1h[8:1],7-3[8:1]/4h[8:1],7-5[8:1]/1h[8:1],7-3[8:1]/4h[8:1],
{4}2b-4[8:1]/7b,2-6[8:1]/5h[8:1],2-4[8:1]/8h[8:1],2-6[8:1]/5h[8:1],
{4}2-4[8:1]/8h[8:1],2-6[8:1]/5h[8:1],2-4[8:1]/8h[8:1],2-6[8:1]/5h[8:1],
{16}2b/8bw4[8:1],,,,8,,,,1/6,,7,8,7,,3/8,,1/7,,2,4,3,,7,5,6,,2,4,3,,7,5,6-1[8:1],,,,6/2,,,,3/8,,
{16}2,1,2,,6/1,,8/2,,7,5,6,,2,4,3,,7,5,6,,2,4,3-8[8:1],,,,3/7,,,,6/1,,
{16}7,8,7,,3/8,,2/6,,3,4,2,,6,5,7,,3,4,2,,6,5,7pp2[8:5]*qq4[8:5],,,,7,,,,,,,,,,,,
{4}2h[8:1]/1h[8:1],8h[8:1]/7h[8:1],4h[8:1]/3h[8:1],6-1[8:1]/5-2[8:1],6/5,,
{16}2/5,,1,8,
{16}1,,4/7,,3/5,,6,1,7,,3,8,2,,6,1,7,,3,8,2^5[8:1],,,,2/8,,,,4/7,,
{16}8,1,8,,2/5,,4/6,,3,8,2,,6,1,7,,3,8,2,,6,1,7^4[8:1],,,,7/1,,,,5/2,,
{16}3,4,{8}3-7[8:1],,3,5-8[8:1],,5-2[8:1],,5,7,7q1[8:5],,,1,,1>8[8:5],,,,,,,,
{16}2h[64:1]/5h[64:1],,3h[64:1],,7h[64:1]/4h[64:1],,8h[64:1],,5h[64:1]/1h[64:1],,,,7/4,,6,,2/5,,3,,4/8,,{24}6,5,6,{16}5,,8,,5/2,,3,,7/4,,6,,1/5,,2,,{24}3,4,3,{16}4,,
2/5,,3,,7/4,,6,,5/1,,{24}2,4,2,{16}4,,1,,4/7,,6,,2/5,,3,,7/4,,8,,{24}7,5,7,{16}5,,
6/1,,7,,3/8,,2,,1/5,,{24}7,8,7,{16}8,,5,,8/3,,2,,6/1,,7,,4/8,,3,,{24}2,1,2,{16}1,,
3/8,,2,,6/1,,7,,8/4,,{24}3,1,3,{16}1,,4,,1/6,,7,,3/8,,2h[1024:1],,2h[1024:1],,,,1b,,,,
{1},,,,E
&inote_6=(170)
{4},{8},2-6[4:1]/7>6[2:1],{2},{8}1b,1b,,
{4}7,8,1,2,
{4}6,5,4,{16}3,,3,4,
{4}3,3/4,3/5,3/6,
{4}3/7,3/8,3/1-5[8:1],1,
{8}2h[8:1]/6,7,8h[8:1]/3,2,1h[8:1]/7,6,5h[8:1]/2,3,
{8}4h[8:1]/8,7,6h[8:1]/1,2,3h[8:1]/5,6,7h[8:1]/2,1,
{16}7,8,6,1,5,2,4,3,4,3,4,3,4,3,4,3,
{4}4-8[8:1],4<7[8:1]*>1[8:1],4w8[8:1],4b,
{8}2h[4:1]/1-5[8:1],1,1,,1h[4:1]/8-4[8:1],8,8,,
{8}5h[8:1],4,3h[8:1]/6,6,2/7h[8:1],2,1h[8:1]/8,8,
{8}1-5[8:1]/8h[4:1],1,1,,7h[4:1]/8-4[8:1],8,8,,
{1}2qq5[2:1]/7pp4[2:1],
{8}2-5[8:1],1,2,,7-4[8:1],8,7,,
{8}1/8h[8:1],1,2h[8:1]/7,7,3/6h[8:1],3,4h[8:1]/5,5,
{16}3,4,2,5,1,6,8,7,1,8,2,7,3,6,4,5,
{16}4,4,{8}6,{16}5,5,{8}3,{16}3,3,{8}5,{8}4-8[16:1],4,
{4}3b-1[85#32:1]/4b,{16}6,5,{8}6,6/3b-5[85#32:1],6,6,6,
{8}6/3b>1[85#32:1],6,{16}6,5,{8}6,6/3b<5[85#32:1],6,6,6,
{4}3b/6b-8[85#32:1],{16}3,4,{8}3,3/6b-4[85#32:1],3,3,3,
{8}3/6b<8[85#32:1],3,{16}3,4,{8}3,3/6b>4[85#32:1],3,3,3,
{4}3/6,{16}7,8,{8}7,7,{16}7,5,{8}7,7,
{4}2/7,{16}2,1,{8}2,2,{16}2,4,{8}2,2,
{16}2,1,2,8,2,7,2,6,2,5,1,5,8,5,7,5,
{32}7,8,1,2,3,4,5,6,7,8,1,2,3,4,5,6,{4}7w3[8:1],7,
{1},
{1},
{1},
{1},
{1}1>4[1:1],
{1}5<8[1:1],
{1}3<6[1:1],
{1}7>2[2:1],
{1}1-4[2:1]/5-8[2:1],
{1}3-6[2:1]/7-2[2:1],
{1}1s5[2:1]/5s1[2:1],
{1}1V35[2:1]/5V71[2:1],
{1}1<6[2:1]/5>2[2:1],
{1}1V72[2:1]/5V36[2:1],
{1}1h[8:9],
{8},8b,8b,,1/8,{16}2,1,{8}2,{16}7,8,
{4}7b,{8}7/3,{24}7,6,5,{8}4,2h[4:1],3,8,
{4}1/8,{8}2/6,{24}2,3,4,{8}5,7h[4:1],6,1,
{4}1/8,{8}7/3,{24}7,6,5,{8}4,1,8-5[8:1],1,
{4}8,{8}4p1[4:1],4,5,5,6,6,
{8}7-4[8:1],{16}6,5,{8}7,1,{8}2-5[8:1],{16}3,4,{8}2,8,
{8}7-4[8:1],{16}6,5,{8}7,1,{8}2-5[8:1],{16}3,4,{8}2,8,
{8}7-3[8:1],{16}6,6,{8}7,1,{8}2-6[8:1],{16}3,3,{8}2,8,
{16}8-4[8:1],1,7,2,{8}8,1,{16}1-5[8:1],8,7,2,{8}1,8,
{8}2/6,{16}8,8,{8}1/7,3,2/5,3,4/7,3,
{8}3/7,{16}1,1,{8}2/8,6,3/7,4,2/6,8,
{8}2/6,{16}4,4,{8}3/5,4,3/7,3,2/5,1,
{8}7/8,1/6,2/5,3/4,{1024}4b,5,{512},{256},{128},{64},{32},{16},{1024}6b,4,{512},{256},{128},{64},{32},{16},{1024}4b,7,{512},{256},{128},{64},{32},{16},{1024}8b,4,{512},{256},{128},{64},{32},{16},
{8}4h[8:1]/8,7,6h[8:1]/1,2,3h[8:1]/5,6,7h[8:1]/3,2,
{8}1h[8:1]/8,7,6h[8:1]/2,3,4h[8:1]/6,7,8h[8:1]/3,2,
{16}1,8,2,7,3,6,4,5,{32}4,3,2,1,8,7,6,5,4,3,2,1,8,7,6,5,
{1}4w8[2:1]*w8[2:1],
{4}1b/8b,{32}1p5[8:1],2,3,4,{8},{32}1q5[8:1],8,7,6,{8},{32}1p5[8:1],2,3,4,{8},
{32}1q5[8:1],8,7,6,{8},{32}1p5[8:1],2,3,4,{8},{32}1q5[8:1],8,7,6,{8},{32}1,2,3,4,{8},
{4}1b/8b,{32}8q4[8:1],7,6,5,{8},{32}8p4[8:1],1,2,3,{8},{32}8q4[8:1],7,6,5,{8},
{32}8p4[8:1],1,2,3,{8},{32}8q4[8:1],7,6,5,{8},{32}8p4[8:1],1,2,3,{8},{32}8,7,6,5,{8},
{4}1b/8b,{32}1/7h[8:1],2,3,4,{8},{32}1/7h[8:1],2,3,4,{8},{32}1/7h[8:1],2,3,4,{8},
{32}2h[8:1]/8,7,6,5,{8},{32}2h[8:1]/8,7,6,5,{8},{32}2h[8:1]/8,7,6,5,{8},{32}2h[8:1]/8,7,6,5,{8},
{16}4,5,4,5,3,6,3,6,2,7,2,7,1,8,1,8,
{16}1,1,1,1,1-5[8:1],1,1,1,{8}1,8,7,6,
{8}4b/5b,{16}2,1,{8}2,3/8,4/5,{16}7,8,{8}7,1/6,
{8}1,2/6,5,3/7,4,2/5,3,2/6,
{8}1/8,{16}3,4,{8}3,2/5,1/8,{16}6,5,{8}6,4/7,
{8}8,1/5,3,4/8,7,2/6,3,4/8,
{8}3/7,{16}6,5h[16:3],{8}6,6,4/5,{16}3,4h[16:3],{8}3,3,
{8}4/5,4/5,3/6,3/6,2/7,2/7,1/8,1/8,
{16}1,2,3,4,5,6,7,8,4,3,2,1,8,7,6,5,
{32}1,2,3,4,5,6,7,8,1,2,3,4,5,6,7,8,{8}1/5,2/6,3/7,4/8,
{8}4b/8b,{16}6,5,{8}7,{16}3,4,{8}2,{16}6,5,{8}7,4/5,
{8}3-8[8:1]/6,4,3/6-1[8:1],5,3-8[8:1]/6,4,3/6,5,
{8}3/6,{16}2,1,{8}8,{16}6,5,{8}4,{16}2,3,{8}4,4/5,
{8}5-7[8:1],4-2[8:1],5,4,8-6[8:1],1-3[8:1],8,1,
{2}8h[2:1],{8}4,7/3,6/2,5/1,
{8}1-4[8:1],1,1-6[8:1],1,,3,3,2,
{16}1,8,1,8,3,4,3,4,8,7,8,7,1,8,1,8,
{32}1,2,3,4,5,6,7,8,1,2,3,4,5,6,7,8,{8}1b,1b,8b,8b,
{4}1>3[8:1]/8,{8}1-4[8:1]/8,8,{4}1-5[8:1]/7,1>3[8:1]/7,
{4}1-4[8:1]/8,{8}1-5[8:1]/8,8,{4}1>3[8:1]/7,1-4[8:1]/7,
{8}1-5[8:1]/6,6,{4}1>3[8:1]/6,{8}1-4[8:1]/7,7,{4}1-5[8:1]/7,
{8}1>3[8:1]/8,8,1-4[8:1]/8,8,1-5[8:1]/7,7,1/6,6,
{4}1/8<6[8:1],{8}1/8-5[8:1],1,{4}1/8-4[8:1],1/8<6[8:1],
{4}1/8-5[8:1],{8}1/8-4[8:1],1,{4}1/8<6[8:1],{8}2/8-5[8:1],2,
{8}3/8-4[8:1],3,2/8<6[8:1],2,1/8-5[8:1],1,1/8,1,
{8},2/8,4/7,1/6,2/5,4b-1[8:1]/5b-8[8:1],{4}4b/5b,
{1},,E
