&title=Virus Funk
&artist=Nhato
&first=-0.03
&des=Nanamor1
&lv_5=13+
&inote_5=(132)
{1},
{8}3-6[8:1]/5,3/5h[4:1],,,7-2[8:1]/5,7/5h[4:1],,,
{16}4<7[8:1],,,3pp1[16:5],4,,,,,,,,8,,,,
{8}7-4[8:1]/1,7/1h[4:1],,,3-8[8:1]/5,3/5h[4:1],,,
{16}6<1[8:1],,,5pp2[16:5],6,,,,,,,,8,,,,
{8}7/3>8[8:1],7h[4:1]/3,,,1/5>2[8:1],1h[4:1]/5,,,
{16}8p4[8:1],,,1pp5[16:5],8,,,,,,,,8,,,,
{8}7-3[8:1]/4,7/4h[4:1],,,2-6[8:1]/5,2/5h[4:1],,,
{4}7pp2[8:5]/5b,4b,3b-6[8:1],3b,
{8}8xh[4:3],4,3,2,1>4[8:1],,,,
4xh[4:3],8,7,6,5<8[8:1],,,,
{8}3pp5[4:1],1,8,7p3[4:1],,3,2,1<5[4:1],
,2,3V14[4:1],4,4x-8[8:1]*-7[8:1],,,,
{8}1xh[4:3],8,2,3,4<7[8:1],,,,
8xh[4:3],1,7,6,5>2[8:1],,,,
{16}8p4[8:1],,,1pp5b[4:5],8,,,1,,,8h[4:1],,,,,,
{4}E7f/B6/B7,E7f/B6/B7,E7f/B6/B7,E7f/B6/B7,
{8}4/5,3/5,2/5,1/5,5/1,6/1,7pp8-5b[2:1]/1,8/1,
,,,,4-8[8:1],{16}3,3,4b,,,,
{8}1-5[8:1],,1/7,,{16}6,6,4,4,5,5,3,3,
4<7[8:1],,5,2,4qq5[4:1],,3,,8,8,,,{48}A1,D2,A2,D3,A3,D4,A4,D5,A5,D6,A6,D7,
{8}3x-8[8:1]/A7,,3/7,,{16}6,6,8,8,1,1,3,3,
5,5,4,4,6,6,3,3,7s3[4:1],7,2,2,1-5[8:1],,,,
{8}1>4[8:1]*<6[8:1],,1,,{16}5,5,2,2,1,1,4,4,
8-4[8:1],,7,3,8pp7[4:1],,1,,6,6,,,{48}A5,D5,A4,D4,A3,D3,A2,D2,A1,D1,A8,D8,
{8}3x-8[8:1]/A7,,3/6,,{16}7,7,5,5,4,4,2,2,
{4}E1f/B8/B1/D1,B5/B4/E5f/D5,E7f/B7/B6/E3f/B2/B3,Cf,
{16}1x-5[8:1],,2,8,1,,6,,3>8[8:1],6,4,5,3,,7,,
7-3[8:1],,6,8,7,,2,,5<8[8:1],4,6,3,5,,1,,
2,,3-8b[8:1]/8-4[8:1],,7/4,,3/8,,,,6-1b[8:1]/1-5[8:1],,2/5,,6/1,,,,
7-4[8:1]/4-8b[8:1],,3/8V24[4:1],,7/4,,,,,,5,6,7,8,
1-5[8:1]/5,,8,4,1,,2,,3-8[8:1],4,2,5,3,,7,,
7-3[8:1]/2,,8,4,7,,2,,4<7[8:1],3,5,2,4,,8,,
1,8,1,8,2,7,2,7,3,6,3,6,4hb[4:5],,5,,E7f/B6/B7,,,,E7f/B6/B7,,,,E7f/B6/B7,,,,E7f/B6/B7,,,,
,,,,,,{24}2,3,4,{16}5,,,,{4}7qq4pp7[4:7]/5qq2[4:3],,,,,
3,2,1,8pp3[4:3],
7,6,5,4qq1[4:3],5,6,7,8qq5pp8[4:7]*pp3[4:3],
,,,,4,3,2,1pp6[4:3],
7,6,5,4qq7b[4:3],7,8,1,2-4[8:1],
2-5[8:1]/8hb[4:3],2-6[8:1],2-7[8:1],2,
{8}8-6[8:1],8,1-3[8:1],1,8-4[8:1],7,1,2,
{16}3,5,4,6,5,7,8,6,1,7,2,8,3-8-6[4:1],1,4,2,
{8}5V31b[4:1],5,,,8w4[8:1],,8b,,
2b-6[8:1]/Cf,,2/7,,{24}8,1,2,3,4,5,1,2,3,4,5,6,
{16}7h[8:1],,5,8h[8:1],,6,1h[8:1],,7,2h[8:1],,8,{48}D1,A1,D2,A2,D3,A3,D4,A4,D5,A5,D6,A6,
{16}D7/3,,1/8,,2,7,3-8[8:1],6,4/5,,3/6,,7-4[8:1],,1,,
7-3[8:1]/2,,3,,7/2,,1,,2,1,4,5,8V24-6[4:1],7,5,6,
7hb[8:1],,,,{24}8,1,2,3,4,5,{16}6/1h[8:1],,8,1,
6-1[8:1],3,5,4,6/3,,2,2h[8:1],,4,4h[8:1],,3,,{24}2/5,6,7,{16}8,4,6,2,
4,3,8,1,5,4,7,8,6,5,8,1,4,3,1,2,
8b/3b,,7,1b/6b,,3,2b/5b,,4hb[8:1]/1b,,{48}8,7,6,5,4,3,{4}2bz6[8:1]/7bs3[8:1],
7/2-5[8:1],{16}2/8,,7,,6,5,8,1,4,3,8,1,
7h[8:1],,5,6h[8:1],,4,5h[8:1],,3>8[8:1],4,2,5,3,,6,,
7s3[8:1]*z3[8:1],,7,,,,,,4,3,1,2,5,4,7,8,6,5,8,1,5,4,1,2,4<7[8:1],3,8,1,4-8[8:1]/2-5[8:1],,,,
2/4>1[8:1],,,,4/7,,6,,5,5,3,3,1,1,7,7,
6/8,,2,1/3,,5,4/6,,3-8[8:1],3,4,2,3,,1,,
2,2,2,2,7,7,7,7,6/4,6/4,5/3,5/3,4/2,4/2,3/1,3/1,
{4}2bs6V84-2b[8:5],,{16},,,,,,,,{16}8xb,4,2,6,4,8,6,2,4,5,2,7,3-8b[8:1],6,1,8,
