&title=Axium Crisis
&artist=ak+q 「Arcaea」より
&first=0.02
&des=Rotifera
&lv_5=14+
&inote_5=
(170){4},,,,{1}8h[4:7]/3-8-5[16:23],
,6h[8:13]/1<4[8:11],
{8},,,,,,,,3,
5,4,6,,4/7h[8:3],,,1,
8,2,1,{2}8/3h[2:1],
{8}4,3,5,4,,6<3[4:3],{24},,,,,,{12}4h[8:7],
{4},,,{16},{48},{24}5,6,
{4}7-4-2[4:1],2-5[8:1],{8},1,{4}1<3[8:3],
{2}6h[4:1],{16}2,4,{8}2-5[8:1],{4}5V74[4:1],
{8}8h[4:1],{16},,,,7/3,6/2,{6}5/1h[6:1],4h[6:1],6,
{4}8V25[16:3],{8}4,4h[4:1],{16},,6,5,7,5,{8}8,
{4}2-5<7[4:1],7-4[8:1],{8},8,{4}8h[4:1],
3<5[8:1],{8}6,7,{16}8,1,{8}8,{4}7/2,
{8}6,4,5,3,4,2,3,1,
{2}2-6[8:1],{4}5<8[8:1]/1>4[8:1],1/5,
{1}Cf,
{8},,,,7,6,5,4,
3>5[2:1],,,,,3p5[8:5],,,{1}4h[4:3],
1>7[4:3],
{8},,8,7,6,5,4,3,
{2}2q7[8:3],1p8[8:7],
{1}7h[8:3],
{8}1,2,3,4,2,3,4,5,
3,4,5>2[16:5],6,{2}7h[4:1],
{8}8,7,6,5,7,6,5,4,
6,5,4<7[16:5],3,{2}2h[4:1],
{16}3,4,3,4,2,4,3,4,3,4,3,4,{4}1h[4:1],
{16}6,5,6,5,7,5,6,5,6,5,6,5,{8}8,8,
{16}7,5,6,4,5,3,4,2,7,5,6,4,5,3,4,2,
8,7,6,5,4,3,2,1,8/4-8[8:1],7/3,6/2,5/1,{4}4,
{48}7b/1b,6/2,5/3,4,,,,,,,,,{8}7/1,{48}7b/1b,6/2,5/3,4,,,,,,,,,{8}2/8,{48}2b/8b,3/7,4/6,5,,,,,,,,,{8}2/8,
{48}2b/8b,3/7,4/6,5,,,,,,,,,{8}2/8,4/3,{24}6,5,6,{8}5,7,
{48}7b/8b,6/1,2/5,4/3,,,,,,,,,{8}7/8,{48}7b/8b,6/1,2/5,4/3,,,,,,,,,{8}2/1,{48}2b/1b,3/8,7/4,5/6,,,,,,,,,{8}2/1,
{48}2b/1b,3/8,7/4,5/6,,,,,,,,,{8}1/2,{48}3b,4,5,6,,,,,,,,,{4}7/8,
{8}1b/5b,{16}2,4,2,4,{8}3bh[8:1],{16}4,2,4,2,{8}3bh[8:1],{16}2,4,
2,4,{8}3bh[8:1],{16}4,2,4,2,{4}4b-6[8:1],2b-4[8:1],
{8}7b,{16}7,5,7,5,{8}6bh[8:1],{16}5,7,5,7,{8}6bh[8:1],{16}7,5,
7,5,{8}6bh[8:1],{16}5,7,5,7,{4}6b-3[8:1],8b/6b,
{16}A7,E7,B6,B5,{8}E5,{16}A1,E1,B8,B7,{8}E7,{16}A3,E3,B2,B1,
{8}E1,{16}A5,E5,B4,B3,{8}E3,{2}8h[64:63],
1h[64:31],E7/B7/B6/A7/A6/B2/B3/E3/A2/A3/Ch[24:1],
{8},,,,7-4[8:1],4,7,2,
1h[8:1],{16}4,5,2,3,8,1,{8}5-2b[8:1],2,5,8,
7h[8:1],{16}2,3,8,1,6,7,4,8,4,8,5,1,5,1,
6,7,8,1,2-6b[8:1],3,4,5,{4}6/2,{8}7<4[8:1],{16}3,3,
{8}7,1,5-8[8:1],{16}2,2,{8}5,3h[8:1],{16}7,6,5/1,8,
{8}3/7,{16}8,1,2/6,7,{8}4/8,{16}7-4[8:1],5,6,5,{8}7,3,
{16}2-5[8:1],8,1,8,{4}2,{8}3/7-3[8:1],{16}6,4,{8}7,1,
5/2-5[8:1],{16}3,4,{8}2,7,6-1[8:1],5,4,3,
6-1[8:1],5,4,3,2h[8:1],{16}7,6,5/1,8,{8}7/3-7[8:1],
1>4[8:1],1<6[8:1],,,2-6b[8:1],{16}3,5,{8}2,8,
4/7-4b[8:1],{16}6,5,{8}7,2,3-8b[8:1],4,5,6,
3-8b[8:1],4,5,6,7h[8:1],{16}2,3,4/8,1,{8}2/6,
{48}1x,8x,7x,6xh[16:3],,,,,,,,,2x,3x,4x,5xh[16:3],,,,,,,,,{4}8b,{16}7,1,7,1,
{48}7x,6x,5x,4xh[16:3],,,,,,,,,6x,5x,4x,3x>8[12:1],,,,,,,,,7x,6x,5x,4x,,,,,,,,,{16}2x,8x,2x,8x,
{48}2x,3x,4x,5xh[16:3],,,,,,,,,3x,4x,5x,6xh[#0.2647018],,,,,,,,,(159){16}8,7,8,7,1h,7,8,7,
3h,7,8,7,5h,7,8,7,(142)1x,7,1,7,2x,6,2,6,
3x,5x,3x,5x,4x,4x,4x,4x,(132){2}4xw8[4:3],
,,,(170)6<8-2>4q6[4:13],
,,,,,,,3>1-7<5[1:2],
,,,5p3[8:11],
{8},,,,,,,,,,,,3,
4,2/5,1,
{16}7,7,{8}8,{4}6/1,{8}2h[8:1],{16}4,3,{8}5h[8:1],3h[8:1],
{16}5,4,{8}6h[8:1],{4}5,{8}6,5,7/4,8,
{16}2,2,{8}1,{4}3/8,{8}7h[8:1],{16}5,6,{8}4,6h[8:1],
{16}4,5,{8}3,{16}2,4,2,4,{4}1h[4:1],{8}4-7[8:1],4,
2-5[8:1],2,{4}8,{8}6,5,6,7/4,
{16}8,1,{8}8,{4}7/2,8h[4:1],{8}5-2[8:1],5,
7-4[8:1],7,{4}1w5[16:9],{2}1,
{8},,,,6pp3[16:7],5,4,3,
2h[8:3],{16},,,,1,8,{8}7<4[8:1],4pp3[16:5],3,2h[4:1],
,,1pp6[8:3],8,{2}7h[8:3],
{8}5>3[8:1],3>1[8:1],1<7[8:1],7<3[4:1],5,,,8-4[8:1],
8,{16},,,,3,3,{4}4-7<5-1[8:3],{8}2,2h[4:1],
,,,3-8[8:1],8>2-6[4:1],,,7,
{4}7h[4:1],6>3[8:1],{8}7,8,1<6[8:1],2,
3,4-1[8:1],5pp8[16:13],4,5,{16},,,,2,3,
{2}4-1b[8:1],{8}2xpp7[16:7],1,8,7,
,6,{4}6V82[4:1],{8}2-4[8:1],4-6[8:1],{4}6V82[4:1],
{8}2V46[4:1],4,{4}6,2xqq7[8:3],{8}5,5h[4:1],
,,{4}1V35[4:1],{8}5-7[8:1],7-1[8:1],{4}1V35[4:1],
{8}5V71[4:1],7,{4}1,{8}6xpp3[8:3],5,4,3,
,,{4}5V71[8:1]/1V35[8:1],5/1,4xV28[8:1]/8xV64[8:1],
8/4,1x/5x,2V47[4:1],{8}7V51[4:1],8,
,8,{4}7h[48:11],{48}8/6,1/5,4/2,3h[16:7],{4},{16},,{24},{48}2b,
1b,8b,7b,6b,5b,{8}4bh[8:3],,,{2}Cf`2<1<8-6>5>4p2[8:27],
{16},,,,,,,,,,,,,,8x,8x,
8x,,,8x,,,{8}8xp6b[2:3],,,,,,,,,,,,,,,,,{2}7>8>1-3<4<5q7[16:49],
{16},,,,,,,,,,,,,,1x,1x,
1x,,,1x,,,{8}1xq3b[16:19],,,,,,,,,,,,,{1}C,
E
