&title=POLARiSNAUT
&artist=cosMo@暴走P
&first=0.02
&des=Slask
&lv_5=14+
&inote_5=(226)
{4},,,,,,,,
{8}5xh[4:1]/E3/B3,,,5h[4:1],,,5h[4:1],,,5h[4:1],,,{16}7x/5x,,,5x/4x,,,4x/2x,,
{8}1xh[4:1]/B7/E7,,,1h[4:1],,,1h[4:1],,,1h[4:1],,,{16}8x/3x,,,1x/6x,,,7x/4x,,
{8}E2,E3,E4,E8,E7,E6,D3,B2,B8,D7,B6,B4,{16}1,2,3,4,{8}5xb<4qq8[4:9]/7h[4:6],,,,,,,,,,,,,,,,
{8}6h[4:4],,,,,,,,{16}5,6,5,6,4,5,4,5,3,4,3,4,2,3,2,3,{8}1xh[4:3],,,,,,{24}A8,B8,C,B4,A4,,{16}3-8[8:1],,3,,7-4[8:1],,7,,{4}1w5b[8:1],1xb,
{8}3,,34,,3,4,34,,24,,5,54,,7,75,,{8}6,,65,,6,5,65,,57,,4,45,,2,24,,
{8}3,,34,,3,4,34,,24,,5,54,,7,75,,{8}65,,45,,3,3,{16}4,2,4,2,
{8}3>5[8:3],,,,,,1b,,{8}7-5[8:1],8,7-1v3[4:1],,,,4,,6h[4:1],,2,2h[4:1],,5,5h[4:1],,
{8}2-4[8:1],1,2-8v6[4:1],,,,5,,3h[4:1],,7,7h[4:1],,4,4h[4:1],,
{8}7-5[8:1],1,2V48[4:1],,,,5,,6h[4:1],,3,3h[4:1],,4,4h[4:1],,
{8}2-4[8:1],8,7V51[4:1],,,,4,,3h[4:1],,{16}5,4,5,4,6,4,6,4,7,4,7,4,{8}8b<2[1:1],,,,,,,,8<5s1[4:6],,,,,,,,2,,,3,,,4h[4:3],,,,,,3,4,5,6,7h[8:3],,,5h[8:3],,,4h[4:2],,,,2,5,3,6,4,7,{8}2,2,6,6,{16}1,2,3,4,8,7,6,5,8>5[4:1]/4,,,,,,,,7-4[8:1]*-3[8:1],,,,7b,,,,
{8}2>5[4:1],,5<8[4:1],,8>3[4:1],,3,,6h[4:1],,4,5h[4:1],,{16}3,4,3,,26,,
{8}7V51[4:1],,3,,{16}2-6[8:1],,,8,,,7,,7-4[8:1],,,5,,,2,,2,,6,,6,,4,,3>8[8:1],,,,B5,,,,7<4[8:1],,,,B1,,,,2-6[8:1],,,,E5,,,,7,,,4,,,6,,65,,,34,,,2h[8:5]/1,,,,,,,,,,8x,7,6,5,4,3,2,1,8/5x,6,7,8,1,2,3,4,
{8}7-4[4:1]/5,,4-1[4:1],,1-6[4:1],,6,,3h[4:1],,5,4h[4:1],,{16}6,5,6,,73,,
{8}2V48[4:1],,6,,{16}7-5[8:1],,,1,,,2,,2-6[8:1],,,4,,,7,,7,,3,,3,,6,,{4}56,58,34,14,57,24,{16}8,7,6,5,1,2,3,4,7xb,,7b,,,,2xb,,2b,,,,8xb/4xb,,2b/6b,,,,1xb/5xb,,7b/3b,,,,{12}E2,E3,E4,E8,E7,E6,{16}3,,3,4,3,,6,,6,5,6,,4,,7,,2-6[8:1],,,1,2<4[8:2],,7,,7h[4:1],,,,,,,,56,,,3,4,,1,,6,,6h[8:1],,5,,5h[8:1],,7<4[8:1],,,,7,,1-5[8:1],,,,1,,7,,,,
{16}3,4,3,4,2b,,,,7,8,7,8,6b,,,,3,4,2,4,1b,,,,7,8,6,8,5b,,,,1,2,3,4,7,6,5,4,2,3,4,5,8,7,6,5,34,,,1,,,6,,56,,,8,,,3,,
{16}6,5,6,,7,,3,4,3,,2,,7,8,7,,{12}2x,2,5,3x,3,6,{8}4x-8[8:1],,24,,
{8}3,3h[8:1],7,7h[8:1],8<5[8:1],1,2,3,{8}4qq8[8:4],,,,7-5[8:1],,7,,
{16}2b,1,2,1,3,,6b,5,6,5,7,,3b,4,2,4,1,,7b,8,6,8,5,,1,2,3,4,8,7,6,5,2bx,,6,5,6,,7bx,,3,4,3,,1bx,,6,5,6,,8bx,,3,4,3,,A7/B7,,,A1/B1,,,A5/B5,,3b^4pp5^6pp7^8pp1^2pp3b[4:13],,,,
{1},,,{4},,,7<3[4:3],,1,,2V46[4:3],,7,,8-4pp5[4:3]b*-4qq3[4:3]b,,,,,,{6}E7,E3,C,
{12}1x,2,3,8,7,6,2x,3,4,1,8,7,4x,3,2,1,8,7,6x/3x,2,1,8,7,6,1x/5x,2,3,8,7,6,8x,1,2,7,6,5,2x,1,8,7,6,5,4x/1x,8,7,6,5,4,
{8}1x/3x,1,8,8,{12}57,,45,,24,,{16}3,4,3,,{8}6,1,{12}18,,27,,36,,
{8}5,3,4,2,{16}6,5,6,5,{8}7-3[8:1],,2b-5[8:1],,8b,,6,1,5,2,
{16}4x,,4,,4,,4,,4,,4,3,5,,2,,6,,6,,6,,6,,6,,6,5,7,,3,,4,,4,2,5,,3,,6,,6,5,7,,4,,
{16}8,7,6,5,1,2,3,4,7,,3,,5,,,,2x,,2,4,3,,3,,7,,7,5,6,,6,,3x,,3,5,2,,2,,6,,6,4,7,,7,,1x,8,1,8,1,8,1,8,1,8,1,8,1,8,1,8,{24}1bx,2,3,4,5,6,7,8,1,2,3,4,
7,6,5,1,2,3,8,7,6,2,3,4,8b,,,,,,
{4},,,,,,{12}E3,B3,B4,E5,,,{16},,E7,E6,{12}E5,,E3/B3,,E7/B7,,A1,A5,A2,A6,A3,A7,B6/B2,,B5/B1,,E5/E1,,{8}A7,E7,E6,A5,,A3,E3,E2,A1,,,,C,,,,
{8}2pp6[1:1],,,,7,,,,4<1[1:1],,,,3,,,,2z6[4:3],,,,1,,,,5h[2:1],,,,
{16}4,4,4,4,4,4,4,4,
{8}2x-5[8:1],1,2,7x-3[8:1],8,7,1x-5[8:1],4,1,{16}6b,,,4b,,,2b,,8b,,,3p1[16:19]/7p5[16:19],,,,,,,,,,,,,,,,,,,,,,,,,,,1,2,3,4,8,7,6,5,3b,4,2,4,3,,7b,8,6,8,7,,1b,5,2,4,3,,8b,4,7,5,6,,{24}3,2,1,8,7,6,3,2,1,8,7,6,{4}3bx>5[4:3]b/5bx,,,,Chf[2:1],,{8}8b,,,,
{8}1,1,3,3,5,5,7,7,{16}18,,2,,34,,5,,6-2[8:1],,,4,6,,1,,1-5[8:1],,1,,7^4[8:1],,7,,3,,3,,8xh[4:1],,,,1,2,3,4,1,2,3,4,8,7,6,5,8,7,6,5,{16}1b,,6,5,7,,3,4,2,,6,5,8,,3,4,1x-3[8:1],,6h[16:1],,1,,6h[16:1],,2x-4[8:1],,6h[16:1],,2,,6h[16:1],,{16}5,7,5,7,4,6,4,6,3,5,3,5,2,4,2,4,1,2,3,4,1,8,7,6,{32}1x/5x,2,3,4,5,6,7,8,1,2,3,4,5,6,7,8,{4}1b/Cf,,{12}7xb/5xb,,5xb/4xb,,2xb/4xb,,E7f/B7/B6,,,,,,E3f/B2/B3,,,,,,
{24}7,6,5,2,3,4,8,7,6,1,2,3,7,6,5,1,2,3,{4}C,{8}1b/E5f,2b/E6f,3b/E7f,4b/E8f,,3b/A7f,2b/A6f,1b/A5f,{12}8,4,2,6,4,8,{4}2,,Cf/A7/A3/A1/A5/B7/B3/B5/B1,,,,,,,,,,,,,,,,{8}4h[16:1],4h[16:1],4h[16:1],4h[16:1],4h[16:1],4h[16:1],4h[16:1],4h[16:1],4h[16:1]/8,4h[16:1]/7,4h[16:1]/6,4h[16:1]/5,4h[16:1]/3,4h[16:1]/2,4h[16:1]/1w5[8:1],4h[16:1]/8,C,
