&title=Surveiller et punir
&artist=cybermiso
&first=0
&des=Tigre et pêche
&lv_5=14+
&inote_5=(145)
{1},
{8}36,5,4^1[8:1],,3-5[8:1]/4,,2,,78,1pp6[8:3],25,,8h[4:1],,,,
{8}63,4,5^8[8:1],,6-4[8:1]/5,,7,,
{16}2,1,2,1,3,8,3,8,{32}E4,E5,E6,E7,E8,E1,E2,E3,4x,,,,,,,,
{16}7,8,7,8b,,,3s7[8:1],4^1b[8:1],3,4b,,,,,,,
{16}5xh[8:1]/6xh[8:1],,,4h[8:1]/5h[8:1],,,3pp1[8:3]/4pp6[8:1],,,,,,,,,,
{16}8b,,,,56,,47,,3,4,,4,3>6[4:3],,,,6h[8:1],,,,5h[8:1],,,,4h[8:1],,,,3-8[8:1],,,,
{16}4,,4,,5,,5,,6,5,,5,6<3[4:3],,,,3,,3,,4,,4,,5,,5,,6^1[8:1],,,,
{16}56,,4,,3,4,2,5,1h[8:3],,A8/E1,,A7/B7,,A6,,
{16}43,,25,,6,5,7,4,8h[8:3],,A1/E1,,A2/B2,,A3,,
{16}7,7,4,4,6,6,3,3,8,2,4,1,7,5,8,4,37,,4,5,4-8[8:1],,35,,2z6[8:1]/4b^1[8:1],,,,,,,,
{8}8pp4[8:5]*-6[8:1],,,,5-7[8:1],,,,1qq5[8:5]*-3[8:1],,,,4b^2[8:1],,,,
{16}1-6-8[16:3],,,2,,,3,,4z8[8:1],,,,,,,,7,,5,4,5,,23,,1b-6-8[16:3]/4bz8[16:3],,,,,,,,
{8}2x<6[4:1],,6<2[4:1]*>2[4:1],,,,,,7x>3[4:1],,3>7[4:1]*<7[4:1],3,,,,,
{32}1h[4:1],,,,,,,,8z4[8:1],7,6,5,,,,,4b^1[8:1],,,,,,,,,,,,,,,,
{32}7h[8:1],,,,8,1,2,3,6-2[8:1],5,4,3,2,1,8,7-5[8:1]*v4[8:1],6b/3b,,,,,,,,,,,,,,,,
{16}2b/8b,,4,5,2-4-1-5[4:1]/6,,18,,6,,7,,8-4-8[4:1],,,,7b/8b,,,,5h[4:1],,6x,,2b,,,3b^8[32:5]/8,,,4/6b,,
{32}7,6,5,4,,,,,
{16}3,5,4,5,2,6,4,6,7bz3[8:1]/8-4[8:1],,,,8b,,,,1,1h[16:3],,,7,5,6,2,4^6[8:1],3,8,,4b/5b,,
{16},,7-5-8-4[4:1]/3,,81,,3,,2,,1-5-1[4:1],,,,2b/1b,,,,4h[4:1],,3x,,7b,,,6b^1[32:5]/1,,,5/3b,,
{32}2,3,4,5,,,,,
{16}6,4,5,4,7,3,5,3,2bs6[8:1]/1-5[8:1],,,,1b,,,,8,8h[16:3],,,2,4,3,7,5>5[8:7],6,1,,5b/4b,,,,,,,,3^5[8:1],,,,,,,,
{8}2-4[8:1]/6^1[8:1],,26,,{16}3,4^1[16:1],,6,54,,,,
{16}7-4[8:1],,6,5,7^2[8:1],,,,7b/8^5b[8:1],,,,,,,,
{16}2-5[8:1],,3,4,2^7[8:1],,,,2b/1w5b[8:1],,,,,,,,
{16}8^5[8:1],,17,,2,3,4,,1,8,1,7,1,6,1,5,
{16}1^4[8:1],,82,,7,6,5,,8,1,8,2,8,3,8,4,
{8}37,26,15,48,{16}37,48,15,26,{32}37,8,1,2,3,4w8[8:5],5,6,
{1}7b/8b,
{2}1b>1[4:14]*>1[4:14]*>1[4:14]*>1[4:14]*>1[4:14]*>1[4:14]*>1[4:14],7b-1[8:1],3-1[8:1],6b-8[8:1],4-2[8:1],7-5[8:1],{4}E5,E4,E3,E2,
{8}7^1[8:1]*^5[8:1],,7-1-3-5-7[8:3],,C,,,,2-8[8:1]*-4[8:1],,2<2[8:3],,C,,,,
{8}E8/E1,E7,E6,E5,3,24,1-3[8:1]/5-7[8:1],68,1w5[8:1],,1b<1b[8:3],,6b,,,,
{16}8,8,8,8,8,8,8,8,1-7[16:1]/8-2[16:1],,,81,,,6,5,
{16}6,5,,6,8h[8:1],,7,1h[8:1],,8-4[16:1],2h[8:1],,8b,,,,
{16}1,1,1,1,1<1[16:6],1,1,1,18,,,,,,,,
{16}7h[8:1],,,1h[8:1]/2h[8:1],,,35,,2h[8:1],,,7h[8:1]/8h[8:1],,,46,,
{16}18,,2-5[8:1],1,3,,24,,7^2[8:1],,6,5,4h[8:1]/7b,,,,
{16}34,,5-1[8:1],6,71,2,35,,2b,,7b/3,,5/4b,,6b/2,,
{16}81,,7-4[8:1],8,6,,75,,2^7[8:1],,3,4,5h[8:1]/2b,,,,
{16}4-8[8:1],,56,56,,,,,6,57,,2,13,,26,,
{16}18,,2^5[8:1],1,3,,24,,8-4[8:1],,12,12,,,,,
{16}1>5[8:1],1,5>1[8:1],5,,,,,6b,,73,,8b<4b[2:1],,12,,
{16}4,,3,,2,,1,,8^3[8:1]*^5[8:1],,,,8z4[4:1],,,,
{16}8h[4:1],,,,,,{32}8,17,26,35,{16}4bw8[8:1],,35,,4b,,,,
{16}12,,7,7,4-8-4b[4:1],,23,,5b-2-5[4:1]/4b,,,,5x,,,,
{16}8b,,1,1,7-5[8:1],7,3-1[8:1],,7xb^1[8:1],,3xb^5[8:1],,7xb,,3xb,,
{16}7,,2,2,5-1-5b[4:1],,76,,4b-7-4[4:1]/5b,,,,4x,,,,
{16}1b,,8,8,2^3^4^5^6^7^8^1^2b[4:1],2,6,,,,,,E5f,,,,
{24}E1,E8,E7,E6,E5,E4,1x>6[4:1],8x,7x,6x,5x,4x,{16},,,,A1,A2,A3,A4,
{24}E1,E2,E3,E4,E5,E6,8x<3[4:1],1x,2x,3x,4x,5x,{16},,,,A8,A7,A6,A5,
{16}1b,1b,1b,1b,,,8b,8b,8b,8b,,,
{32}2,3,4,5,6,7,8,1,{16}2b,,,5bw1[16:6]/6b,,,3b/4b,,,,,,,,,,
{16}3^6[8:1]/7,,2,,3h[4:1],,,,7^2[8:1]b,,6,,7h[4:1],,,,
{16}2-6[8:1],,8^5[8:1],,2qq3[8:3],,8,,2,,E6,,E7,,,,
{16}4h[8:1]/8pp5[2:1],,,,5h[8:1],,,,4h[8:1],,,,3h[8:1],,,,
{16}6h[4:3]/E1,,E8,,B2,,E7,,B3,,E6,,A4,,,,
{16}6^3[8:1],5,7,5,6,,,,2^7[8:1]b,1,3,1,2,,,,
{16}7-3[8:1],,1^4[8:1],,7pp6[8:3],,1,,7,E5,E4,E3,{48}A1,B1,C,B5,A5,,,,,,,,
{16}3x^5[16:1]/6x,,2,,3/7-4[8:1],,8,,7/2^5[8:1],,1,,2/8-4-8[4:1],,1,,
{16}84,,2,,1-5-1[4:1],,7,,15,,7,,8>7[16:3]b,,2,,
{32}E1,E2,E3,E4,E5,E6,E7,E8,{16}2xh[8:1]/8xh[16:3],,,,
{32}1,8,7,6,5,4,3,2,{16}7xh[8:1]/1xh[4:1],,,,
{16}7qq8[4:1],,1^4[8:1],,7,,1,,,1bx/5x,,7bx/3x,2x/6bx,,8x/4bx,,
{16}1x-5-2[4:1]/5x,,2,,15,,6,,8V61[16:3],,1,,84,,2,,
{16}2,1,{48}2x,E3,E4,{16}A4,7,8,{48}7x,E7,E6,A5,,,
{16}2x/1,,7x/8,,C/1x<2[16:3]b,,,,
{32}D1,E8,D7,E6,D5,E4,D3,E2,{16}1xh[16:3]/7xh[8:1],,,,
{32}8,1,2,3,4,5,6,7,{16}8xh[8:1]/2xh[4:1],,,,
{16}8h[8:1],,{48}6x,5,4,3,,,{16}6h[8:1],,{48}8x,1,2,3,,,
{32}5w1[8:1]b,4,3,2,1,8,7,6,{16}A5f,,,,
{16}2x/8x,,2x/8x,,1x/7x,,1x/7x,,6b/8b,,57,,4b/6b,,35,,
{16}2,4,8,7,4,6,1,8,{32}2x,3,4,,7x,8,1,,6x,5,4,,1x,8,7,6,
{48}5xh[16:5]/E2,E3,E4,E5,,,{16},7x,,8,,1,{48}1xh[16:5]/E1,E2,E3,E4,,,{16},6x,,7,,8,
{48}8xh[16:5]/2,3,4,5,,,{16},6x,,7,,1,{48}1xh[16:5]/3,4,5,6,,,{16},7x,,8,,,
{16}2b,2,4,4,6,6,8,8,{24}3b,4,3,6,5,6,{32}2b,3,4w8[16:1],5,{48}6b,7,8,1,2,3,4b/5,,,,,,,,,E
