&title=寄る辺のSunny,Sunny
&artist=Morfonica
&first=1.3
&des=Chiori through time
&des_5=Chiori through time
&lv_5=13
&inote_5=(184){4},,,,,,,,,,,,,,,,,,,,2b-5[8:1],
{8}6,7,{4}8-5[8:1],{8}4,3,
{4}2>5[4:1],5<8[4:1],,,7-4[8:1],
{8}3,2,{4}1-4[8:1],{8}5,6,
{4}7<4[4:1],4>1[4:1],,,8b-4[8:1],
2,{8}2-5[8:1],5>2[8:1],2<6[4:1],6h[4:1],
,,{4}5h[4:1],4h[4:1],3,
{8}2<8-4[8:3],,,4<6-2[2:1],,,,1>5[2:1]*<5[2:1],
,,,,,,,,3-1[8:1],
3,{4}8b,{8}3-1[8:1],3,{4}8b,
{8}6-8[8:1],6,{4}1b,{8}6-8[8:1],6,{4}1b,
3b-6-2-5[2:3],8,8,8,
8,8,8,8,
6-3-7-4[2:3],1,1,1,
1,1,1,1,
3bV15-3[2:3],8,8,8,
8,8,8,8,
6V84-6[2:3],1,1,1,
1,1,1,1,
3b/7b,{8}1pp4[8:5],6,{4}1,{8}7v4b[8:1],7,
,,8qq5[8:5],3,{4}8,{8}2v5b[8:1],2,
,,{4}4h[4:1],3h[4:1],2h[4:1],
1h[4:1],8h[4:1],7h[4:1],6h[4:1],
{8},,1pp4[8:5],6,{4}1,{8}7v4b[8:1],7,
,,8qq5[8:5],3,{4}8,{8}2v5b[8:1],2,
,,{4}4h[4:1],3h[4:1],2h[4:1],
1h[4:1],8h[4:1],7h[4:1],6h[4:1],
5,5,6,6,
7,7,8,8,
{8}2/1-5[8:1],,,3,4-8[8:1],,,6,
7-3[8:1],,,1,{2}2-6[8:1],
{4}7/5,2/4,{8}8/6,7,1/3,2,
{1}8b/1b>8[2:1],
{4}1bV35v2[4:1],{8}5,6,7V51[4:1],,,3,
{4}3h[2:1],2<5[4:1],,4h,
3v8V25[4:1],{8}5,6,7V51[4:1],,,3,
{4}3h[2:1],2<5[4:1],,3,
{2}4v1b[8:1]*v7b[8:1],{8}6/2,8>3[8:1],,6/8<5[8:1],
,8/2,,1,{4}2/7-4[8:1],3,
{8}2-4[8:1],1-5[8:1],2x,1x,8-4[8:1],7-5[8:1],8x,7x,
1x,1,2/6,1-4[8:1]/5-8[8:1],,1/5,,,{4}8bV64v7[4:1],
{8}4,3,2V48[4:1],,,6,
{4}6h[2:1],7>4[4:1],,5h,
6v1V74[4:1],{8}4,3,2V48[4:1],,,6,
{4}6h[4:1],7>4[4:1],,6,
{2}5b/3h[2:1],{4}2V85[4:1],{8}4,4-8[8:1],
,6v1[8:1],,3-7[8:1],,8xh[8:3],,,{1}5bqq1[2:1]*pp1[2:1],
{16},,,B2,B3,,,B7,B6,,,E1,{4}C,
{2}5bh[4:7]/4-1[8:1],8>3[8:1],
{4}4h[8:1],4h[8:1],{2}4-8[8:1],
1bh[1:1]/5-7[8:1],8-4[8:1],
{1}5b,
{4}6/2b-5V31[2:3],6,6,6,
6,6,6,6,
6/8V25v3[2:3],6,6,6,
6,6,6,6,
2-5V31[2:1],6,6,6,
8V25v3[2:1],6,6,6,
{8}8x<5[8:1]/4x>1b[8:1],8x/4x,,,6x<1b[8:1]/2x>5[8:1],6x/2x,,,8/4,
8/4,7/3,8-5[8:1]/4-1[8:1],,8/4,,,{4}1bV35v2[4:1],
{8}5/1x,6,{4}7V51[4:1],{8}7/4x,3,
{4}2h[4:1],1<4[8:3],3,4h,
3v8V25[4:1],{8}5/3,6,{4}7V51[4:1],{8}7/4,3,
{4}3h[4:1],2<5[4:1],4,3-8b[8:1],
{2}3b/6h[2:1],{4}7V14[4:1],{8}5,5-1[8:1],
,3v8[8:1],,6-2[8:1],,1xh[8:3],,,{1}4bpp8[2:1]*qq8[2:1],
{4},B1/D2/B2,B8/D8/B7,B3/B4/E4/B6/E6/B5,
2b-5[8:1],{8}6,7,{4}8-5[8:1],{8}4,3,
{4}2>5[4:1],5<8[4:1],8>3[4:1],5,
7-4[8:1],{8}3,2,{4}1-4[8:1],{8}5,6,
{4}7<4[4:1],4>1[4:1],1<6[4:1],4,
2-6[8:1],7,{8}7-4[8:1],4<7[8:1],7>3[4:1],3h[4:1],
,,{4}4h[4:1],5h[4:1],6,
{8}7<5-1[8:3],,,1>3-7[2:1],,,,8v5<7v4[2:1]*v3>1v4[2:1],
,,,,,,,,3-1[8:1],
3,{4}8b,{8}3-1[8:1],3,{4}8b,
{8}6-8[8:1],6,{4}1b,{8}5-1b[8:1],5,{4}1b/Cf,
E
