&title=待ってて愛のうた
&artist=Aqours
&first=0.96
&wholebpm=110
&demo_seek=72.9
&demo_len=52.8
&lv_5=13
&des_5=Ragna@神曲すぎる
&des=Ragna
&inote_5=(110){16}
4,5,3,4h[16:3],,,2q3[16:5],,,,,,8,,,,
5h[8:1],,4,6h[8:1],,5,7p6[16:5],,,,,,1,,,,
4,5,3,4h[16:3],,,1q4[16:5],,,,,,8,,,,
6h[8:1],,5,7h[8:1],,6,8p5[16:5],,,,,,1b,,,,
3,4,2>8[4:1],5h[16:11],,,2,,,,,,1,,1,,
7h[8:1],,5^8[8:1],6h[8:1],,4h[16:5],5,,,,1,,12,,,,
3,4,2qq5[16:5],5h[8:3],,,2,,,,7h[8:3],,,,,,
1h[2:1],,3,,5,,7,,8h[2:1],,6,,4,,2,,
1b^4[8:1],,,,5qq6[32:9],,6,,,,,,8,,,,
6h[8:1]/5h[8:1],,,5h[8:1]/4h[8:1],,,3qq4[32:9]/4,,,,,,5,,,,
8^5[8:1],,,,4pp3[32:9],,3,,,,,,1,,,,
3h[8:1]/4h[8:1],,,5h[8:1]/4h[8:1],,,6/5s1[16:5],,,,7,,6,,5^8[4:1],,
,,2,,3,,4^1[4:1],,,,7,,6,,5-1[4:1],,
4,,,,3^8[4:1],,4,,,,6,,5,,4pp1[2:1],,
3h[4:3],,,,,,,,,,,,8,,,,
7h[8:1]/4h[8:1],,,6h[8:1]/3h[8:1],,,5V36[4:1]/2V41[4:1],,,,,,,,,,
8bq4[8:1]/7b,,,,5p1[8:1],,5h[8:3],,,,,,8,,,,
2h[8:1]/4h[8:1],,,5h[8:1]/4h[8:1],,,7V58[4:1]/5,,,,,,4,,,,
1p5[8:1]/2,,,,4q8[8:1],,4h[8:3],,,,,,1,,,,
7h[8:1]/5h[8:1],,,5h[8:1]/4h[8:1],,,4V61[4:1]/2,,,,2,,3,,4^1[4:1],,
,,7,,6,,5^8[4:1],,,,2,,3,,4-8[4:1],,
5,,,,6^1[4:1],,5,,,,3,,4,,5qq5[16:7]*pp5[16:7],,
6b,,,,,,,,,,,,8,,,,
3h[8:1]/1h[8:1],,,1h[8:1]/8h[8:1],,,6h[4:1]/8,,,,5,,73,,12,,
4^1[8:1]/3,,5,,6h[4:1]/4,,,,5^8[8:1],,4,,3h[4:1]/5,,,,
4^1[8:1],,5,,6pp5[32:9]/4,,,,65,,,,4-1[8:1],,3,,
5-8[8:1],,6,,4-1[8:1],,2,,5-8[8:1],,7,,4-1[8:1],,1,,
5-8[8:1],,8-4[8:1],,4,,2h[4:1],,,,1,,73,,65,,
8-4[8:1]/7,,1,,2h[4:1]/8,,,,1-5[8:1],,8,,1/7h[4:1],,,,
8-4[8:1],,1,,2pp1[32:9]/8,,,,28,,,,5^8[8:1],,6,,
1^4[8:1],,2,,5^8[8:1],,7,,1^4[8:1],,3,,5<4[8:3],,8h[8:5],,
,,,,,,,,5h[16:3],,,6h[16:3],,,2,,
1b^6[8:1]/8,,,,1/8b^3[8:1],,,,1b-5[8:1]/8-4[8:1],,,,1b/8b,,,,
4bqq5[4:1],,,,45,,,,6bpp4[4:1],,,,64,,,,
1b-5[8:1],,8b-4[8:1],,1b,,8b,,,,18,,27,,,,
4-1[8:1]/5-8[8:1],,,,45,,,,2-6[8:1],,3,,7-3[8:1],,8,,
4^1[8:1],,5^8[8:1],,4,,5w1[8:1],,,,5b,,,,,,
6bpp4[4:1],,,,64,,,,2bqq5[4:1],,,,25,,,,
8b-4[8:1],,1b-5[8:1],,8b,,1b,,,,18,,27,,3>6[4:1]/6,,
,,6,,5,,4-8[8:1],,1,,1,,,,2h[8:3]/7b,,
,,1,,5^2[8:1]*^8[8:1],,,,5bw1[8:1],,,,5b,,,,
1b<2[4:1],,,,15,,,,7b>6[4:1],,,,74,,,,
1b-5[8:1],,2b-6[8:1],,1b,,2b,,,,78,,61,,,,
3-8[8:1]/7-4[8:1],,,,37,,,,1-5[8:1],,2,,6-2[8:1],,7,,
3^8[8:1],,4^7[8:1],,3,,4w8[8:1],,,,4b,,,,,,
7b>6[4:1],,,,74,,,,3b>4[4:1],,,,35,,,,
8b-4[8:1],,7b-3[8:1],,8b,,7b,,,,12,,38,,65,,
7-5[8:1]/4,,8,,3-1[8:1]/7,,4,,7V51[4:1]/3,,8,,37,,4h[4:1],,
,,8,,7-2[8:1]/3-6[8:1],,26,,,,,,4/8-4[8:1],,6,,
1-5[8:1]/8,,3,,1/8z4[32:7],,7,,18,,3h[4:1],,,,1b^4[8:1],,
,,18,,7^2[8:1],,6,,,,,,4qq2[8:1]*pp6[8:1],,26,,
,,,,5pp5[16:5]*qq5[16:5],,37,,,,,,,,,,
6h[4:1],,,,8h[4:1],,,,2h[4:1],,,,4h[4:1],,,,
5h[64:1],,,,,,,,{32}3,4,5,6,7,8,1,2,{16}3-8[8:1]/6-1[8:1],,,,
3bqq5[8:9]/6bpp4[8:9],,,,,,,,,,,,,,,,
,,,,,,,,,,4b/5b,,1b-5[8:1]/2b,,3b,7b,
1b>1[8:9]*<1[8:9],,,,,,,,,,,,,,,,
,,,,,,,,,,7b/8b,,6b/5b,,3b/4b-8[4:1],,
,,,,,,5b-1[4:1],,,,,,,,4bw8[8:3],,
,,,,,,,,,,18,,27,,,,
4,5,3qq6[32:11],6h[8:3],,,3,,,,8h[8:3],,,,,,
1-5[4:1],,8,,3,,6,,8-4[4:1],,1,,6,,3,,{1}
1b<2[4:7],,7s3[8:9],{16},,,,,,,,,1,6,5,8,3,4,{1}
1b,E
