&title=SHAKER
&artist=40mP
&first=0.03
&des=IMRIS vs LTCalter
&lv_5=13+
&inote_5=(126)
{1},
{8}5h[8:4],,,,{16}3,,,34,,,2h[8:3],,
{8},,7p5[16:5],,,,,,
{8}4h[8:4],,,,{16}5,,,65,,,7-5v4[16:5],,
{8},,,,E3`B3,,45,,
{8}8h[8:2],,5qq1[16:6],,7,,6-8[16:3],,
{8}8-5[16:3],,5-1[16:3],,1v6[16:2],,3>8[16:3],,
{8}7,,7p2[16:3],,2,,
{8}4-1[16:3],,1v6[16:3],,6qq4[16:3],,7,7h[8:3],,,
{8}1h[8:2],,4pp8[16:6],,2,,3-1[16:3],,
{8}1-4[16:3],,4-8[16:3],,8v3[16:2],,7<3[16:3],,
{8}2,2>5[8:1],,6,6>4[8:1],,3,3s7[8:3],,,,,,,5-7[8:1],,
{8}7,,5,8,{16}8-5[8:1],,,4,,,3h[8:2],,,,,,5,,5,4,,,3v8[16:3]/5,,,,,,
{8}7v4[16:3],,4,,2V48[16:4],,5,6h[8:2],,,{16}1,,7,5,,,,,4-2[8:1],,,,
{8}2,,4,1,{16}1-4[8:1],,,5,,,6h[8:2],,,,,,4,,4,5,,,6/4,,6<1[16:3]/4,,,,
{8}2,2<7[16:3],,6,6pp2[8:3],,4,4h[8:2],,,1,{24}2,3,4,{16}5,5,,46,,,7,,
{8}8<4[8:2],5,4,3,{16}2-5[16:3],,,5qq4[16:4],,,7h[8:2],,
{8},,5,{16}3,4,,,25,,,,1>5[8:2],,
{8}4,5,6V42[16:3],7,7p5[16:5],,,1h[8:2],
{8},,{16}5,3,6,4,,,57,,,,8,,
{8}8<4[8:2],5,4,3,{16}2pp4[16:3],,,4>1[16:4],,,6h[8:2],,
{8},,7,{16}1,5,,,{8}25,3>8[16:3]/4,,
{8}7,7>2[16:3],,3,3qq5[8:3],,4,5<4[8:3],
{8},,,,8-4[8:1],,,,
{16}2h[16:3],,,5h[16:3],,,8V25[8:2],,,,8h[16:3],,,,,,
7h[16:3],,,5h[16:3],,,1<4[8:2],,,,1h[16:3],,,,,,
2,2h[8:1],,4h[16:3],,,7V52[8:2],,,,8h[16:3],,,,,,
7,7h[8:1],,5h[16:3],,,2V84[8:2],,,,3h[16:3],,,,,,
2,2h[16:2],,6h[16:2],,5,5>1[16:3],,,,8,,7,,5,,
4,4pp8[8:3],,1,,2,2h[8:1],,,,3V51[16:3],3,,,8,,
6h[8:1],,,,2h[16:3]/4,,,6,7h[8:1]/5,,5h[8:1],,4h[8:1],,2h[8:1],,
8bx<6[8:1],,,,1bxp5b[8:1],,,,2bxpp4[8:1]*pp4[8:1],,3bx,,A3f/2x-8[12:1],,,,
2-5[8:1],7,7,,2-8[12:1],6,6,,2-5[8:1],,7,,2^7[8:1],,8h[8:1],,
2^5[8:1],,6h[8:1],,2^7[8:1],,7h[8:1],,2V48[16:3],,5,,2,,,,
7h[8:1],,1,3h[8:1],,8,6h[8:4],,B8,,B6,,B2,,B4,,
5x/3x,,7,46,,2h[8:1],,7,,8,1,4,3-1[12:1],,7,,
3-5[8:1],8x,8x,8x,3-1[12:1],6x,6x,6x,3-5[8:1],,8,,3^8[8:1],,6h[8:1],,
3^6[8:1],,7,,3^8[8:1]/8,,8h[8:1],,3^6[8:1],,6^3[8:1],,3,,7,,
8-5[8:1],,4,4,,2,2-4-8-6[8:2],,4,,1,,7,,5,,
4x<8[16:2],,,,3x/4xqq5[16:4],,,,5xpp4[16:4]/4x,,,,8-4>5b[8:6],,,,
8xb,,,,,,,,,,,,,,1h[8:2],,
,,7h[8:1],,5s1b[16:5],,5,,7h[16:1],,,6h[16:1],,,5,,
4hx[8:2]/1hx[8:1],,,,2z6b[16:5],,2,,1h[16:1],,,7h[16:1],,,8h[8:2],,
,,2h[8:1],,4z8b[16:5],,4,,1h[16:1],,,2h[16:1],,,3-5[12:1],,
,,6-4p5[8:2],,,,4,,1b,,,,
{16}64,,7,8,
{16}5>2[8:1],4,,,57,,6,,24,,5,,64,,8,2,
{16}4-8[8:1],3,,,46,,7,,82,,4,,15,,3,7,
{16}5p1[8:1],,8,,5,,7,6,52,,3,,{12}4xqq8[8:3]/6x,5x,6x,
{16}7x-5[8:1],,,,7,,,,1/5-3[8:1],,,,6-2[8:1],,6,,
{16}7-1[8:1],,,,6-4[8:1],,6,,7-3[8:1],,,,8-2[8:1],,,,
{16}7,6,5,4,8,1,2,3,4/1-5[8:1],,,,4-8[8:1],,4,,
{16}1-6[8:1],,,,4-7[8:1],,,,8-4[8:1],,,,5-1[8:1],,5,,
{16}8-3[8:1],,,,5-2[8:1],,,,A7/A6/E7,,,,E1/C/E5,,,,
{16}A2/A3/E3/1x-5[8:1],,1x,,,,,,
{8}2-6-3-5[8:14],,,,,,,,,,,,,,6-3-5b[8:8],6,,,,,,,6-3-5[8:6]*-3-5[8:6],6,,,,,,,C,,
{8}2h[8:1]/4h[8:1],,5h[8:1]/6,{16},6,
{8}7h[8:1]/4h[8:1],,4h[8:1]/2h[8:1],,1h[8:1]/3h[8:1],,7h[8:1]/1,{16},3,
{8}3h[8:1]/5h[8:1],,2h[8:1]/6h[8:1],,{16}4,5,4,5,3,6,3,6,2,7,2,7,1,8,1,8,
{24}1,2,3,4,5,6,{32}8,7,6,5,4,3,2,1,{8}8,,{16}2-6b[8:1]/E5,,,,
2b^5[8:1],8,8,,2-8[12:1],6,6,,2-5[12:1],,7,,2-6[8:1],,8-4[8:1],,
2^5[8:1],,8,,2^7[8:1],,7h[8:1],,2^5[8:1],,5p1[8:1],,2,,6,,
7h[8:1],,1,3h[8:1],,8,6>4[8:1],,4v1[8:1]*p8[8:1],,6,,,,,,
7x/1x,,2,35,,4h[8:1],,7,,8,1,4,3-1[12:1],,7,,
3-5[8:1],8x,8x,8x,3-1[12:1],6x,6x,6x,3-6[8:1],,7-2[8:1],,3^8[8:1],,7,,
3^6[8:1],,7,,3^8[8:1]/8,,8h[8:1],,3^6[8:1],,6^3[8:1],,3,,7,,
{16}8-4[8:1],,7,2,8,,1<6[8:1],,4pp1[16:4],,1,,,,,,
{8}A2/E3/A3,,A8/E8/A7,{16},A4/E5/A5,,2,,{32}2x,3x,{16}4x,5,5,5,
{8}Chf[8:2],,{8}8^6[8:1],7,8/5^8[8:1],2^4[8:1],5,2^8[8:1],
{8}8,2^4[8:1],4,2^7[8:1],7v4[8:1],2,5p1[8:1],6,
{8}5,8^3[8:1],2,8^5[8:1],5p4[8:2],8,3,1^3[8:1],
{8}2,1^7[8:1],8,1s5[16:3],2<6[16:3],1,,,
{8}5,7^1[8:1],1,7^5[8:1],5,7^2[8:1],2,7^4[8:1],4p2[8:2],7,2<5[16:4],1>5[16:2],,,,,
{16}2^4[8:1],,5,5,2<2[16:7],8,8,,2>7[16:3],,4,,,,,,
{8}A8/A1/E1/E8/E2,,
{24}B4/B5/E5,,1,2,3,4,{16}5,7,1,,3,,4,5,
{8}E5f/B4/B3/E3/B5/B6/E7,,,,E
