&title=ALL☆NIGHTER!
&artist=Turbo ft. Moon Jelly
&first=0.22
&lv_5=14.3
&des_5=nomiko as "w h y a m i c h a r t i n g a t 3 a m"
&inote_5=
(175){4},{16},,,,,,,,,,,8xh[8:5]/4xh[8:5],
,,,,,,,,,,,,,,{8}E8/E4,
E5,E3/E7,E4,E6/E2,E3,8xh[4:1]/4xh[4:1],,,1,
2/7,6,5/8,1,6/2,3-8[8:1],5,
3-6[8:1],6,3-7[8:1],7,3-5[8:1],8,3b,8,
7,6/2,3,4/1,8,7/3,6-1[8:1],4,
6-3[8:1],3,6-2[8:1],2,6-4[8:1],1,6b,8,
1/5,6,7/3,2,1/5,6,{4}7h[4:1]/3h[4:1],
{8},1xh[8:1]/5xh[8:1],,3b/7b,,7/3-1[8:1],4,3/6-4[8:1],
7,6/2-8[8:1],3,2/5-3[8:1],6,5/1-7[8:1],2,1bx/5bx,
,7/3,{16},,8b/A4,1/A5,2/A6,3/A7,{8}4/A8,,8,
7/2,3,4/1,8,3/7,6-1[8:1],4,6-3[8:1],
3,6-2[8:1],2,6-4[8:1],1,6b,1,2,
3/7,6,5/8,1,2/6,3-8[8:1],5,3-6[8:1],
6,3-7[8:1],7,3-5[8:1],8,3b,1,8/4,
3,2/7,6,3/5,2,1/5,{4}4/8,
{24},,,8b,1,2,{8}3,{24}8b,7,6,{8}5,8,1,8/2x,
7,1/6x,2,7/3x,6,2/5x,3,4xh[4:1]/8xh[8:1],
,1bx,{24},,,8,7,6,{8}5,{48}8b,1,2,3,4,5,,,,,,,{8}6x/8xh[8:1],
,4/8xh[8:1],,6/8xh[8:1],5,8xh[8:1]/4h[16:1],,3/8xh[8:1],
,2/8bxh[4:3],B2/E3,B5,B4,B3,{16}B2/A2,B1/A1,,,{4}5x/1xh[8:1],
{8}4/1xh[8:1],5,6/1xh[8:3],7,{4}6h[8:1],
{8}7x/1bxh[4:3],B7/E7,B4,C,B5,{16}B6/A6,B7/A7,,A8/B8,,,{8}6<1[8:1],
5,6/2,{16}4,4,,5,,1,,8xh/4xh,,,{8}2/6,
3,5,6,7/4,3,2,6/1x,
5,3/8x,4,6/1x,5,3/8x,4,5h[8:1]/B1,
B2,6h[8:1]/E3,B3,7h[8:1]/E4,E5,{64}A1/4x-8[8:1],D1,{96}A8,{192}3,D8,,,{64}A7,{192}D7,2,,{64}A6,D6,{8}1/A5,4x/2-6[8:1],
3,2x/1<6b[8:1],1,1b,3-7[8:1],1,3x/2x-5[8:1],1,
2,{16}8<5[8:1],4,,8,,,{8}1V72[8:1],6,{16}1x/4,5,,,{8}5V36[8:1],
{16}2,5,,1x,,,{8}7x/3x,{16}2,3xh[8:1]/1xh[8:1],{32},,,8b,7,6,{16}5,
{8}8x/4x,1/5,6/2,{24}8b/4b,3/7,2/6,{32}5-2[8:1]/1-6[8:1],,,6bh/2bh,7h/3h,8h/4h,,,{4}1bh/5bh,
{8}5/1>3[8:1],8/6h[8:1],1x,5h[8:1],2-4[8:1],1/6h[8:1],2x,7,
3<5[8:1],2/7h[8:1],3x,6h[8:1],4-2[8:1],5/7h[8:1],4x,{16}8,1,
{8}7,{16}4,3,{8}5h[16:1],{16}2,1,2,1,{32}2bx,3,{16}4,{32}1bx,8,{16}7,{8}6x-8[8:1]/5x-1[8:1],
,6-2[8:1],{24},,,6/8b,1,2,3,4,,{8}5x-1[8:1],,5x/7-3[8:1],
6,7x/8>3b[8:1],8,8b,6-2[8:1],8,6x/7x-4[8:1],8,
7x,{16}1>4[8:1],5,,1x,,,{8}8xV27[8:1],3x,{16}8x/5,4,,,{8}4V63[8:1],
7,{16}1/4,8x,,,{8}2x/6x,{16}7x,6xh[8:1]/8xh[8:1],{32},,,1b,2,3,{16}4,
{8}1x/5x,8/4,3/7,{24}1bx/5bx,6/2,7/3,{32}4-7[8:1]/8-3[8:1],,,3bxh/7bxh,2h/6h,1h/5h,,,{4}8bh/4bh,
{8}4/8<6[8:1],1/3h[8:1],8x,4h[8:1],7-5[8:1],8/3h[8:1],7x,2,
6>4[8:1],7/2h[8:1],6x,3h[8:1],5-7[8:1],4/2h[8:1],5x,{16}1,8,
{8}2,{16}5,6,{8}4h[16:1],{16}7,8,7,8,{32}7b,6,{16}5,{48}8b,1,2,3,{24}4,5-2b[8:1]*-8b[8:1],{4},{16},,,{48},{16}1xw5[8:1],
1,1,1,{8}1,,3h[16:1],
{16}4,6,4,7,4,8,4,1,5-3[8:1],8h[8:1],,,{8}5,8>2[8:1],
7h[8:1],8-4[8:1],6h[8:1],8V62[16:3],5h[8:1],8,,4<6[8:1],
3h[8:1],4-8[8:1],2h[8:1],4V26[16:3],1h[8:1],4,{4}8h[8:1],
{8}1,8h[16:1]/2h[16:1],7h[16:1]/3h[16:1],4h[16:1]/6h[16:1],5,5-2b[8:1],7,5b,
{16},1,7,1,6,1,5,1,4,1,3x-5[8:1],2,{8}1,8x/3x-1[8:1],
,3x/7x,,6xh[8:1]/8xh[16:1],{16},1,,7,,2h[16:7],,,{8}7bh[8:3],
{16},,,,3,4,5,6,7,8,7/1,2/6,{8}3b/5bh[4:1],
,3-7-1[8:3],,7-5[8:1],,,,2xpp5[8:3],
,6,6,7,{4}7,8xh[8:1]/5xh[8:1],
{8},3,6-4[8:1]/2-8[8:1],7,{2}6x-8[8:1]/2x-4[8:1],
{8},2/6x<8[8:1],5/1,3,{4}4,{8}4/8,7,
3,6/2,,1xh[16:1]/5xh[16:1],7xh[16:1]/3xh[16:1],6xh[16:1]/2xh[16:1],{4}8xh[16:1]/4xh[16:1],
{8},7/3h[8:1],7,6/4h[8:1],{4}5-2[8:1]*-8[8:1],5bx,
{8},8/4h[8:1],8,7/3h[8:1],{4}6-2b[8:1],6bx/1,
{8}8/4h[8:1],1,{4}5x/2xh[8:1],{8},5/8,{24}6/1x,2,3,4,,,,,,{8}5/8,
{32}1x/6x,2,3,4,5,6,7,8,,,,,{8}2xh[4:1]/8bx-4b[8:1],,,,3/6h[8:1],
3,2/5h[8:1],{4}2,1xh[8:1]/4xh[8:1],
{8},6,3-5[8:1]/7-1[8:1],2,{2}3x-1[8:1]/7x-5[8:1],
{8},7/3>1[8:1],4/8,6,{4}5,{8}5/1,2,
6,3/7,,8xh[16:1]/4xh[16:1],2xh[16:1]/6xh[16:1],4xh[16:1]/8xh[16:1],{4}2xh[16:1]/6xh[16:1],
{8},2/6h[8:1],2,3/5h[8:1],{4}4-7[8:1]*-1[8:1],4bx,
{8},1/5h[8:1],1,2/6h[8:1],{4}3-7b[8:1],3bx/8,
{8}1/5h[8:1],8,{4}4x/7xh[8:1],{8},4/1,{24}3/8x,7,6,5,,,,,,{8}4/1,
{32}8x/3x,7,6,5,4,3,2,1,{8}8,7bx,,5x/1xh[8:1],
,4/1xh[8:1],,3/1xh[8:1],4,1xh[8:1]/5h[16:1],,6/1xh[8:1],
,7x/1bxh[4:3],B7/E7,B4,B5,B6,{16}B7/A7,B8/A8,,,{4}4/8xh[8:1],
{8}5/8xh[8:1],4,3/8xh[8:3],2,{4}3h[8:1],
{8}2x/8bxh[4:3],B2/E3,B5,C,B4,{16}B3/A3,B2/A2,,A1/B1,,,{8}3>8[8:1],
4,3/7,{16}5,5,,4,,8,,1xh/5xh,,,{8}7/3,
6,4,3,2/5,6,7,3/8x,
4,6/1x,5,3/8x,4,6/1x,5,4h[8:1]/B8,
B7,3h[8:1]/E7,B6,2h[8:1]/E6,E5,{64}A8/5x-1[8:1],D1,{96}A1,{192}6,D2,,,{64}A2,{192}D3,7,,{64}A3,D4,{8}8/A4,5x/7-3[8:1],
6,7x/8>3b[8:1],8,8b,6-2[8:1],8,6x/7x-4[8:1],8,
7x,{16}1h[16:1],5,,2x/6x,3,4,{8}8xV27[8:1],3x,{16}8x/5,4,,,{8}4xV63[8:1],
{16}7,4,,8x,,,{8}2x/6x,{16}7,6xh[8:1]/8xh[8:1],{32},,,1b,2,3,{16}4,
{8}1x/5x,8/4,3/7,{24}1bx/5bx,6/2,7/3,{32}4-7[8:1]/8-3[8:1],,,3bxh/7bxh,2h/6h,1h/5h,,,{4}8bh/4bh,
{8}4/8,3h[8:1]/1h,{16}8x,7,{8}6/4h[8:1],7-1[8:1],6/3h[8:1],7x,2,
6,2h[8:1]/7h,{16}6x,5,{8}4/3h[8:1],5-7[8:1],4/2h[8:1],5x,{16}1b,8,
{8}2,{16}5b,6,{8}4h[16:1],{16}7x,8,7,8,{32}7b,6,{16}5,{32}8b,1,{16}2,{8}3x-1[8:1]/4x-8[8:1],
,3x-7[8:1],{24},,,3/1b,8,7,6,5,,{8}4x-8[8:1],,4x/2-6[8:1],
3,2x/1<6[8:1],1,1b,3-7[8:1],1,3x/2x-5[8:1],1,
2x,{16}8h[16:1],4,,7x/3x,6,5,{8}1xV72[8:1],6,{16}1x/4,5,,,{8}5V36[8:1],
2,{16}5,1x,,,{8}7x/3x,{16}2x,3xh[8:1]/1xh[8:1],{32},,,8b,7,6,{16}5,
{8}8x/4x,1/5,6/2,{24}8bx/4bx,3/7,2/6,{32}5-2[8:1]/1-6[8:1],,,6bxh/2bxh,7h/3h,8h/4h,,,{4}1bh/5bh,
{8}5/1,8/6h[8:1],{16}1x,2,{8}3/5h[8:1],2-8[8:1],3/6h[8:1],2x,7,
3,2/7h[8:1],{16}3x,4,{8}5/6h[8:1],4-2[8:1],5/7h[8:1],4x,{16}8b,1,
{8}7,{16}4b,3,{8}5h[16:1],{16}2x,1,2,1,{32}2x,3,{16}4,{48}1x,8,7,6,{24}5,4x-7b[8:1]*-1b[8:1],{4},{16},,,{48},{16}8xw4[8:1],
8,8,8,{8}8,,6xh[16:1],
{16}5,3,6,1,7,2,8,3,1-7b[8:1],4h[8:1],,,{8}1b,4<6[8:1],
3h[8:1],4-8[8:1],2h[8:1],4V26[16:3],1h[8:1],4bx,,8>2[8:1],
7h[8:1],8-4[8:1],6h[8:1],8V62[16:3],5h[8:1],8bx,{4}4h[8:1],
{8}8,1h[16:1]/7h[16:1],2h[16:1]/6h[16:1],5h[16:1]/3h[16:1],4,4-7b[8:1],2,4b,
{16},4x,8,3,7,2,6,1,{8}5,{16}6-4[8:1],8,{8}7,1x/6x-8[8:1],
,6x/2x,,1x/3x,{16}4,8,,2h[8:1],,7h[16:5],,,{4}1bxh[8:3],
{8}8bx,{16}7x,6,5,4,{24}1x,2,3,4,5,6,8h[4:1],,,,,,{8}2,
{16},,1,7h,3,5h,8,2h,4,6h,{8}7xh[4:1]/3xh[4:1],
E
&lv_7=藍
&des_7=nomiko respects for TIStheGOD
&inote_7=
(175){4},{16},,,,,,,,,,,8bxh[8:5]/4bxh[8:5],
,,,,,,,,,,,,,,{8}E8f/E4f,
E5f,E7f/E3f,E4f,E2f/E6f,E3f,8bxh[4:1]/4bxh[4:1],,,1b,
2b/7b,6b,5b/8b,1b,6b/2b,3b-8b[8:1],5b,
3b-6b[8:1],6b,3b-7b[8:1],7b,3b-5b[8:1],8b,3b,8bx,
7b,6b/2b,3b,4b/1b,8b,7b/3b,6b-1b[8:1],4b,
6b-3b[8:1],3b,6b-2b[8:1],2b,6b-4b[8:1],1b,6b,8bx,
1b/5b,6b,7b/3b,2b,1b/5b,6b,{4}8bxh[4:1]/4bxh[4:1],
{8},2bh[8:1]/6bh[8:1],,4b/8b,,7bx/3bx-1b[8:1],4b,3bx/6b-4b[8:1],
7b,6bx/2b-8b[8:1],3b,2bx/5b-3b[8:1],6b,5bx/1b-7b[8:1],2b,1bx/5bx,
,3b/7b,{16},,8bx/A4f,1b/A5f,2b/A6f,3b/A7f,{8}4b/A8f,,8b,
7b/2b,3b,4b/1b,8b,3b/7b,6b-1b[8:1],4b,6b-3b[8:1],
3b,6b-2b[8:1],2b,6b-4b[8:1],1b,6b,1bx,2b,
3b/7b,6b,5b/8b,1b,2b/6b,3b-8b[8:1],5b,3b-6b[8:1],
6b,3b-7b[8:1],7b,3b-5b[8:1],8b,3b,1bx,8b/4b,
3b,2b/7b,6b,3b/5b,2b,1b/5b,{4}4b/8b,
{24},,,8b,1b,2b,{8}3b,{24}8b,7b,6b,{8}5b,8b,1b,2b/8b,
7b,6b/1b,2b,3b/7b,6b,5b/2b,3b,4bh[4:1]/8bh[8:1],
,1bx,{24},,,8b,7b,6b,{8}5b,{48}8b,1b,2b,3b,4b,5b,,,,,,,{8}6bx/8bxh[8:1],
,4b/8bxh[8:1],,6b/8bxh[8:1],5b,8bxh[8:1]/4bh[16:1],,3b/8bxh[8:1],
,2bx/8bxh[4:3],B2f/E3f,B5f,B4f,B3f,{16}B2f/A2f,B1f/A1f,,,{4}5b/1bxh[8:1],
{8}4b/1bxh[8:1],5b,1bxh[8:3]/6bxv8b[8:1],5bx,,,7bx/1bxh[4:3],
B7f/E7f,B4f,Cf,B5f,{16}B6f/A6f,B7f/A7f,,B8f/A8f,,,{8}6b<1b[8:1],
5b,6b/2b,{16}4b,4b,,5b,,1b,,4b/8b,,,{8}2b/6b,
3b,5b,6b,7b/4b,3b,2b,6b/1b,
5b,8b/3b,4b,1b/6b,5b,8b/3b,4b,5bh[8:1]/A1f,
B2f,6bh[8:1]/E4f,E5f,7bh[8:1]/E3f,E4f,{64}A1f/4bx-8b[8:1],D1f,{96}A8f,{192}3b,D8f,,,{64}A7f,{192}D7f,2b,,{64}A6f,D6f,{8}1b/A5f,4b/2b-6b[8:1],
3b,2b/1b<6b[8:1],2b,1b,3b-7b[8:1],1b,3b/2b-5b[8:1],1b,
2b,{16}8b<5b[8:1],4b,,8bx,,,{8}1bV72b[8:1],6b,{16}4bx/1b,5bx,,,{8}5bV36b[8:1],
{16}2b,5b/8bx,,1bx,,,{8}7b/3b,{16}2b,3bh[8:1]/1bh[8:1],{32},,,8b,7b,6b,{16}5b,
{8}8bx/4bx,1b/5b,6b/2b,{24}8bx/4bx,3b/7b,2b/6b,{32}5b-2b[8:1]/1b-6b[8:1],,,6bxh/2bxh,7bh/3bh,8bh/4bh,,,{4}1bh/5bh,
{8}8b>3b[12:1]/4b<7b[12:1],1b/5b,8b/4b,1bx/5bx,{32}6bx/2bx,7b/3b,{16}8b/4b,{8}5bx/1bx,1b<6b[12:1]/5b>2b[12:1],8b/4b,
1b/5b,8bx/4bx,{32}3bx/7bx,2b/6b,{16}1b/5b,{8}4bx/8bx,8b-2b[12:1]/4b-6b[12:1],1b/5b,8b/4b,{16}1bx/5bx,3b,
{8}7b,{16}8bx/4bx,2b,{8}6bh[16:1],{16}2bx,1b,2b,1b,{48}2bx,3b,4b,5b,6b,7b,8b,1b,2b,3b,{24}4b,6bx-8b[8:1]/5bx-1b[8:1],,,,,,{8}6b-2b[8:1],
{16},,1bx/6b,2b,3b,4b,{8}5bx-1b[8:1],,5b/7b-3b[8:1],
6b,7b/8b>3b[8:1],7b,8b,6b-2b[8:1],8b,6b/7b-4b[8:1],8b,
7b,{16}1b>4b[8:1],5b,,1bx,,,{8}8bV27b[8:1],3b,{16}5b/8bx,4bx,,,{8}4bV63b[8:1],
7b,{16}4b/1bx,8bx,,,{8}2b/6b,{16}7b,6bh[8:1]/8bh[8:1],{32},,,1b,2b,3b,{16}4b,
{8}1bx/5bx,8b/4b,3b/7b,{24}1bx/5bx,6b/2b,7b/3b,{32}4b-7b[8:1]/8b-3b[8:1],,,3bxh/7bxh,2bh/6bh,1bh/5bh,,,{4}8bh/4bh,
{8}1b<6b[12:1]/5b>2b[12:1],8b/4b,1b/5b,8bx/4bx,{32}3bx/7bx,2b/6b,{16}1b/5b,{8}4bx/8bx,8b>3b[12:1]/4b<7b[12:1],1b/5b,
8b/4b,1bx/5bx,{32}6bx/2bx,7b/3b,{16}8b/4b,{8}5bx/1bx,1b-7b[12:1]/5b-3b[12:1],8b/4b,1b/5b,{16}8bx/4bx,6b,
{8}2b,{16}1bx/5bx,7b,{8}3bh[16:1],{16}7bx,8b,7b,8b,{48}7bx,6b,5b,4b,3b,2b,1b,8b,7b,6b,{24}5b,4bxw8b[8:1],{4},{16},,,{48},{16}8bxw4b[8:1],
8b,8b,8b,{8}8b,,3bxh[16:1],
{16}4bx,6b,4b,7b,4b,8b,4b,1b,5b-3b[8:1],8bh[8:1],,,{8}5bx,8b>2b[8:1],
7bh[8:1],8b-3b[8:1],6bh[8:1],8bV62b[16:3],5bh[8:1],8bx,,4b<6b[8:1],
3bh[8:1],4b-7b[8:1],2bh[8:1],4bV62b[16:3],1bh[8:1],4bx,,,1b,
8bh[16:1]/2bh[16:1],7bh[16:1]/3bh[16:1],4bh[16:1]/6bh[16:1],5b,5b-2b[8:1],7b,5bx,
{16},1bx,7b,1b,6b,1b,5b,1b,4b,1b,3bx-5b[8:1],1bx,{8}2bx,8bx/3bx-1b[8:1],
,3bx/7bx,,6bxh[8:1]/8bxh[16:1],{16},1bx,,7bx,,2bxh[16:7],,,{8}7bxh[8:3],
{32},,,,,,,,3bx,4b,5b,6b,7b,8b,1b,2b,3b,4b,5b,6b,7b,8b,1b,2b,{8}3b/5bxh[4:1],
,3b-7-1b[8:3],,3bx/7bx-5b[8:1],,,,2bxpp5b[8:3],
,6b,6b,7b,{4}7b,8bxh[8:1]/5bxh[8:1],
{8},3bx,6bx-4b[8:1]/2bx-8b[8:1],7bx,{2}6bx-8b[8:1]/2bx-4b[8:1],
{8},2b/6bx<8b[8:1],5b/1b,3b,{4}4b,{8}4b/8b,7b,
3b,6b/2b,,1bxh[16:1]/5bxh[16:1],7bxh[16:1]/3bxh[16:1],6bxh[16:1]/2bxh[16:1],{4}8bxh[16:1]/4bxh[16:1],
{8},7b/3bh[8:1],7b,6b/4bh[8:1],{4}5b-1b[8:1],5bx,
{8},8b/4bh[8:1],8b,7b/5bh[8:1],{4}6b-2b[8:1],6bx/1bx,
{8}8bx/4bxh[8:1],1b,{4}5b/2bxh[8:1],{8},5b/8b,{24}6b/1bx,2b,3b,4b,,,,,,{8}5b/8b,
{32}6b/1bx,2b,3b,4b,5b,6b,7b,8b,1b,2b,3b,4b,5b,6b,7b,8b,1b,2b,3b,4b,{8}5b,
,3b/6bh[8:1],3b,2b/5bh[8:1],{4}2b,1bxh[8:1]/4bxh[8:1],
{8},6bx,3bx-5b[8:1]/7bx-1b[8:1],2bx,{2}3bx-1b[8:1]/7bx-5b[8:1],
{8},7b/3bx>1b[8:1],4b/8b,6b,{4}5b,{8}5b/1b,2b,
6b,3b/7b,,8bxh[16:1]/4bxh[16:1],2bxh[16:1]/6bxh[16:1],4bxh[16:1]/8bxh[16:1],{4}2bxh[16:1]/6bxh[16:1],
{8},2b/6bh[8:1],2b,3b/5bh[8:1],{4}4b-7b[8:1]*-1b[8:1],4bx,
{8},1b/5bh[8:1],1b,2b/4bh[8:1],{4}3b-7b[8:1],3bx/8bx,
{8}1bx/5bxh[8:1],8b,{4}4b/7bxh[8:1],{8},4b/1b,{24}3b/8bx,7b,6b,5b,,,,,,{8}4b/1b,
{32}3b/8bx,7b,6b,5b,4b,3b,2b,1b,8b,7b,6b,5b,4b,3b,2b,1b,8b,7b,6b,5b,{8}4bx/1bxh[8:1],
,5b/1bxh[8:1],,3b/1bxh[8:1],4b,1bxh[8:1]/5bh[16:1],,6b/1bxh[8:1],
,7bx/1bxh[4:3],B7f/E7f,B4f,B5f,B6f,{16}B7f/A7f,B8f/A8f,,,{4}4b/8bxh[8:1],
{8}5b/8bxh[8:1],4b,8bxh[8:3]/3bxv1b[8:1],4bx,,,2bx/8bxh[4:3],
B2f/E3f,B5f,Cf,B4f,{16}B3f/A3f,B2f/A2f,,B1f/A1f,,,{8}3b>8b[8:1],
4b,3b/7b,{16}5b,5b,,4b,,8b,,5b/1b,,,{8}7b/3b,
6b,4b,3b,2b/5b,6b,7b,3b/8b,
4b,1b/6b,5b,8b/3b,4b,1b/6b,5b,4bh[8:1]/A8f,
B7f,3bh[8:1]/E6f,E5f,2bh[8:1]/E7f,E6f,{64}A8f/5bx-1b[8:1],D1f,{96}A1f,{192}6b,D2f,,,{64}A2f,{192}D3f,7b,,{64}A3f,D4f,{8}8b/A4f,5b/7b-3b[8:1],
6b,7b/8b>3b[8:1],7b,8b,6b-2b[8:1],8b,6b/7b-4b[8:1],8b,
7b,{16}1b,5b,,1bx,2b,3b,{8}4b/8bV27b[8:1],3b,{16}5bx/8b,4bx,,,{8}4bV63b[8:1],
{16}7b,4b/1bx,,8bx,,,{8}2b/6b,{16}7b,6bh[8:1]/8bh[8:1],{32},,,1b,2b,3b,{16}4b,
{8}1bx/5bx,8b/4b,3b/7b,{24}1bx/5bx,6b/2b,7b/3b,{32}4b-7b[8:1]/8b-3b[8:1],,,1bxh/5bxh,2bh/6bh,3bh/7bh,,,{4}8bh/4bh,
{8}1b<8-6b[12:1]/5b>4-2b[12:1],8b/4b,1b/5b,8bx/4bx,{32}3bx/7bx,2b/6b,{16}1b/5b,{8}4bx/8bx,8b>1-3b[12:1]/4b<5-7b[12:1],1b/5b,
8b/4b,1bx/5bx,{32}6bx/2bx,7b/3b,{16}8b/4b,{8}5bx/1bx,1b-7b[12:1]/5b-3b[12:1],8b/4b,1b/5b,{16}8bx/4bx,6b,
{8}2b,{16}1bx/5bx,7b,{8}3bh[16:1],{16}7bx,8b,7b,8b,{48}7bx,6b,5b,4b,3b,2b,1b,8b,7b,6b,{24}5b,3bx-1b[8:1]/4bx-8b[8:1],,,,,,{8}3b-7b[8:1],
{16},,8bx/3b,7b,6b,5b,{8}4bx-8b[8:1],,4b/2b-6b[8:1],
3b,2b/1b<6b[8:1],2b,1b,3b-7b[8:1],1b,3b/2b-5b[8:1],1b,
2b,{16}8b,4b,,8bx,7b,6b,{8}5b/1bV72b[8:1],6b,{16}4b/1bx,5bx,,,{8}5bV36b[8:1],
2b,{16}5b/8bx,1bx,,,{8}7b/3b,{16}2b,3bh[8:1]/1bh[8:1],{32},,,8b,7b,6b,{16}5b,
{8}8bx/4bx,1b/5b,6b/2b,{24}8bx/4bx,3b/7b,2b/6b,{32}5b-2b[8:1]/1b-6b[8:1],,,8bxh/4bxh,7bh/3bh,6bh/2bh,,,{4}1bh/5bh,
{8}8b>1-3b[12:1]/4b<5-7b[12:1],1b/5b,8b/4b,1bx/5bx,{32}6bx/2bx,7b/3b,{16}8b/4b,{8}5bx/1bx,1b<8-6b[12:1]/5b>4-2b[12:1],8b/4b,
1b/5b,8bx/4bx,{32}3bx/7bx,2b/6b,{16}1b/5b,{8}4bx/8bx,8b-2b[12:1]/4b-6b[12:1],1b/5b,8b/4b,{16}1bx/5bx,3b,
{8}7b,{16}8bx/4bx,2b,{8}6bh[16:1],{16}2bx,1b,2b,1b,{48}2bx,3b,4b,5b,6b,7b,8b,1b,2b,3b,{24}4b,5bxw1b[8:1],{4},{16},,,{48},{16}1bxw5b[8:1],
1b,1b,1b,{8}1b,,6bxh[16:1],
{16}5bx,3b,6b,1b,7b,2b,8b,3b,1b-7b[8:1],4bh[8:1],,,{8}1bx,4bx<6b[8:1],
3bh[8:1],4bx-7b[8:1],2bh[8:1],4bxV62b[16:3],1bh[8:1],4bx,,8bx>2b[8:1],
7bh[8:1],8bx-3b[8:1],6bh[8:1],8bxV26b[16:3],5bh[8:1],8bx,,,8b,
1bh[16:1]/7bh[16:1],2bh[16:1]/6bh[16:1],5bh[16:1]/3bh[16:1],4b,4b-7b[8:1],2b,4b,
{16},4bx,8b,3b,7b,2b,6b,1b,{8}5b,{16}6bx-4b[8:1],8bx,{8}7bx,1bx/6bx-8b[8:1],
,6bx/2bx,,1bx/3bx,{16}4b,8b,,2bh[8:1],,7bh[16:5],,,{4}1bxh[8:3],
{8}8bx,{16}7bx,6b,5b,4b,{24}1bx,2b,3b,4b,5b,6b,8bh[4:1],,,,,,{8}2b,
{16},,1b,7bh,3b,5bh,8b,2bh,4b,6bh,{8}7bh[4:1]/3bh[4:1],
E
