&title=Eltaw
&artist=FI00t
&first=0
&des=北川大树
&lv_5=14
&inote_5=(96.52)
{8},,,,,,
{16},Ch[8:
2],,
{16},,7,6,5,5,,4,5,4,4,3,2,2,,B5,B4,,1,2,3,3,,5,4,5,6,7,8,8,,B4,B5,
{16},8h[16:
11],1,1,2,,2,3,4,5,6,6,6,,B5,B4,,1h[16:
11],8,8,7,,7,7,6,5,4,4,4,,B4,B5,
{16},3/6,3,5,3,,5,4,5,4/8,7,6,5,,B6/E6,B5/E5,,3/6,6,4,6,,4,5,4,5/1,2,3,4,,B3/E4,B4/E5,
{16},3/6,3/6,6,5,,4,5,3,4,5,6,3,,4/8,1/5,,2/7,2/7,1,7,,8,7,1,2,8,1,8,,7/3,2/6,
{16},4h[16:
2]b/8b,8,8,3h[16:
3],,1,1,3h[16:
2],8,8,1,4h[16:
2],,1/3,8/5,
{16},5h[16:
2]/6,6,6,4h[16:
3],,5,5,3,4h[16:
2]x,3,3,2h[16:
3],,1,3x,
{16},5h[16:
2]b/1b,1,1,6h[16:
3],,8,8,5h[16:
2],1,1,8,5h[16:
2],,6/8,8/6,
{16},7,7,6,5,,4,4,3,2x,5/2h[16:
2]x,6,4,,1b,1b,
{16},5h[16:
2],4,4,4h[16:
2],5,5,5h[16:
1],4,5,4h[16:
3],5,5,5,4/5,4/5,,4/5,4/5,4,4,4h[16:
4],5,5,5,5h[16:
2],4,4,5,4,5,4x/5x,
{16},8,8,1x-3[0.29##0.1]/8,8,8,1x-4[0.29##0.1]/8,8,8,1x-5[0.27##0.1]/8,8,8,8/1x-4[0.29##0.1],8,8,8,
{16},7,2,8,1,2,7,8,1,2,8,2,1,8b/4b,1b/5b,7b/3b,2b/6b,
{16}4/5,4/5,3,3/4,,2/3,3/4,4/5,3,5,4,3/6,,4/5,5/6,6/7,4,6,6,3/5,,3/6,2/7,3/6,2,6,4/8,1/5,
{16},4/6,3/5,4/6,3,3,5/6,4/7,,3/5,4/6,3/5,6,6,3/4,2/5,,1/5,3/7,1/5,4,4,3/6,2/7,,1/7,8/2,8/1,
{32}7,6,5,2,3,4/5,6,7,8,4,3,2,7,6,5,,
{16}1b,2,3/6,4/5,,5,5,5-8[0.15##0.1],5b/4,3,2,3,,7,7-5[0.15##0.1],2,2-5[0.15##0.1],1,1-5[0.15##0.1]b,2,,3/4,3/4,3,3/5,4/7,2/6,3/8,
{16},8-6[0.4##0.1],8-3[0.4##0.1],8-5[0.4##0.1],8-4[0.4##0.1],,,,,1-3[0.4##0.1],1-6[0.4##0.1],1-4[0.4##0.1],1-5[0.4##0.1],,,,,4-7[0.4##0.1],4-1[0.4##0.1],4-8[0.4##0.1],4x,4x,4x,3x/5x,,1/8,1/2,1/8,
{32}5,6,5,6,4,5,4,5,3,4,3,4,1h,8h,2h,7h,
{16}8b<1[0.1##9],,,,,,,,7,,,,,,,,6,,,,,,,,A5,,,,E5,,,,4,,,,,,,,E4,,,,A3,,,,3,,,,,,,,4,,,,5,,,,1b>8[0.1##9],,,,,,,,7,,,,,,,,6,,,,,,,,5,,,,,,,,4,,,,,,,,3,,,,,,,,2,,,,,,,,C,
{16},,,,,,,6,5,4,4,,5,4,5,5,4,3,3,,B4,B5,,3,4,5,5,,4,5,4,4,5,6,6,,B5,B4,,2,3,3,4,,4,5,6,6,5,6,7,,B8,B1,,7,6,6,5,,5,4,3,3,4,3,2,,B1,B8,,8xb/Ch[16:
14],7,6,6,,5x,7x,6x,8x,8x,6x,7x,,5,8,,5xb/Ch[16:
14],6,7,7,,8x,6x,7x,5x,5x,7x,6x,,8,5,,1xb/Ch[16:
14],2,3,3,,4x,2x,3x,1x,1x,3x,2x,,4,1,,1b/8b,2/7,2/7,4/6,,3x/7x,2x/8x,1xw5[0.1##0.2],C/1x,,,,,,2/6<1[0.31##0.15],,
{64}2x,3,4,5>2[0.28##0.15],,,,,,,,,,1x,8,7,6,
{16},,7/3>8[0.31##0.15],
{64},,,7x,6,5,4<7[0.28##0.15],,,,,,,,,,8x,1,2,3,
{16},4h[16:
2],,5h[16:
2],,,6x/2x,6x/2x,3x/7x,3x/7x,1,1,1,8,1,2,4h[16:
2]/5h[16:
2],,,6,7,8<5[0.2##0.15],1,2,3>8[0.2##0.15],4,5,6>3[0.2##0.15],7,8,1<6[0.2##0.15],2,3,4h[16:
3],5h[16:
2],,,4x/5x,4x/5x,3x/6x,3x/6x,2x/7x,2x/7x,1x-4[0.15##0.1]/8x-5[0.15##0.1],1/8,,,,8/7,,1/2,,3b/4b,,,5b/6b,,,4b/5b,,6bx/Cf,2bx/Cf,8x/4x,6bx/Cf,,2bx/Cf,8x/4x,1xw5[0.3##0.15],,,B1/Cf/B5,,,,4/6,4/6,3,3,2,1,8h[16:
1],7h[16:
1],,6xh[16:
2],,,3xh[16:
1]/5xh[16:
1],,3xh[16:
1]/5xh[16:
1],,,,1xh[16:
2]/6xh[16:
2],,,8xh[16:
2]/7xh[16:
2],,,8h[16:
2]/1h[16:
2],,
{32},8,7,6,5,1,2,3,4,7,6,5,4,2,3,4,5,,,,
{16}6,,6,
{16},3x,3x,
{32}5x,6,5,6,3x,4,3,4,1x,2,1,2,8x,7x,8x,7x,8x,7,6,1,8x,7,2,1,8x,3,2,1,8x,,,,2x,2x,6,5,6,3,4,3,6,5,6,3,4,3,
{64}8x,7,6,1,2x,3,7,6,5x,2,3,4,8x,7,6,1,2x,3,8,7,6x,5,8x,7,6,5,1x,2,3,4,1x,2,3,4,
{32},6,5,6,7,6,,4,5,4,5,4,,8,7,8,,3,4,3,2,3,,5,4,5,4,5,,1,2,1,,4h,5h,3h,6h,4h,5h,3h,6h,2h,7h,1h,8h,2h,7h,3h,6h,3h,7h,2h,6h,1h,5h,8h,3h,8h/4h,1h/5h,2h/6h,3h/7h,4h/8h,5h/1h,6h/2h,7-3[0.1##4]/3h,
{16},,,,,,,,5h[16:
3],,,,,,,,7h[16:
3],,,,,,,,6h[16:
3],,,,,,,,Ch[16:
3],,,,,,,,Ch[16:
3]/6h[16:
3],,,,,,3xh[16:
5],,Ch[16:
3],,,,,,,,Ch[16:
9],
