&title=Cicio
&artist=V.A.
&first=3.77
&des=liansuki
&lv_5=12
&inote_1=
&inote_5=(65)
{8}6h[8:1],5,,B2,,,3h[8:1],4,,B6,,,6h[8:1],4h[4:1],,B7,,,3h[8:1],5h[4:1],,E2,,,6,5<8[4:1],,4h[8:1],,,2,1>4[4:1],,6h[8:1],,,4,5pp2[4:1],,3h[8:1],,,2,4v1v4[4:1],,6h[4:1],,,
{16}7,,1-3-5-2[8:3],7,,,,,,,,,7,,6-8-4[4:1],2,,,,,,,,2,3,,1-5[16:3]*-4[16:3],8,,,1,,,,,4/5,4-6>4v1[16:6]/5-3<5v8[16:6],,,,,,,,,,,,2,,8-6-4-7[16:5],2,,,,,,,,1-3-7[16:6],4-6[16:5]/1,,,,,,,,,,,,8-4<6[4:1],,,,8,,8-4>2[4:1],,,,8,,8-4pp4b[16:6]/8-4qq4b[16:6],,,,8,,,,,,,,1>1[1:1]/C,,,,,,B3,,,,,,B6,,,,,,B8,,,,
{32},1x,,,
{16}1x>4[4:1],,,,,,4qq1[16:10],,,,7,6,5pp8[4:1],,,,,,,,,,,,8<8[1:1]/C,,,,,,E7,,,,,,B3,,,,,,B1,,,,,,7<4[8:3],,,,,,4>1[8:3],,,,,,1<8-5[16:6],,,,,,
{32}B2,,,B3,,,E4,,,,,,
{16}2,,8-6-4v7[8:3],2,,,B2,,,,,,2,,3-1q5[4:1],6,,,B6,,,,,7,6,,1<6[16:3],1,,,1>4pp7[16:12],,,,1,,6h[4:1],,,,,,8h[4:1],,,,,,8,,2-4p8[4:1],8,,,B6,,,,
{32},5x,,,5xpp5[16:6]*qq5[16:6],,
{16},,,,,,,,,,,3h[8:1],,,,2,,7h[8:1],,,,8z4[16:6],,1hb[2:1],,,,,,,,2?<7[16:5],,,,6hx[4:1],,7?>2[16:5],,,,5h[4:1],,2?<5[16:8],,,,4h[2:1],,,,,,,,7?>2[16:5],,,
{32},3hx[4:1],
{16},,2?<7[16:5],,,
{32},4h[4:1],,,
{16},7?>4b[16:8],,,
{32},3hb[32:17],,
{16},,,,,,,2?<7[16:5],,,,7,,7?>2[16:5]/6,,5,,6,,7/2?<5[16:8],,5,,4h[2:1],,,,,,,,7?>2[16:5],,,,2,,2?<7[16:5]/3,,4,,3,,2/7?>4b[16:10],,4,,
{32}3hb[16:10],,
{16},,,,,,,,,,,
{32},
{96},
{16}8b,7,6,5,6,,5h[8:1]/4h[8:1],,,,2,,4h[8:1],,3,,1,,8h[8:1]/2h[4:1],,,,7,,1b,2,3,4,3,,5h[8:1]/4h[8:1],,,
{64},,,6,
{16},
{64},,,7h[8:1],,,,,,,,8,
{16},,2,,1v4[16:1]/8h[4:1],,,,
{32}1b,
{32},,,8b,,7,,6,,5,,6,,5,,7/B5,,6,,5,,4,,3,,2,,3/B4,,4,,2,,3,,4,,5,,6/B4,,5,,6,,7,,8,,,,5,,4h[32:4],,,,B3,,,,,,4,,3h[64:9],,,,
{64},B2,
{32},,,,,3,,2h[64:9],,,,
{64},B1,
{32},,,,,,E8/C,,,
{16},,,,4>5[16:18]/8,,,,,,
{32}E1,,,,
{32},,,,,,,
{48},B7,,
{32},,,,,,,,,,,E6,,,,,,,,,,,,3,,4h[8:1],,,,E2,,,,,
{48},3,,
{32},
4h[8:1],,,,B2,,,,,
{48},3,
{112},
{32},4h[8:1],,,,B3,,,,,,
{64},B3,,
