&title=メイドノココロハアヤツリドール
&artist=森羅万象(Vo:あよ)
&first=0.751
&des=JDJDH
&lv_5=13
&inote_5=(128)
{4}
1p8[4:13],,D2,,A2,,D3,,A3,,D4,,A4,,D5,,
5,5,6,6,7,7,8,8,18,18,27,27,36,36,
{8}
5,4,C,,
56,7,56,4,56,7,56,8,7>1v4[8:2]/1,,,2,3h[4:1],2,4h[4:1],5,
3,3h[8:3],2,1,8,8h[8:3],7,6,5,45,3,42,7/1<7v4[8:2],,,,
5h[4:1],6,4h[8:1],3,4/5,5/6,7/8,,
4h[4:1],3,5h[8:1],6,5/4,4/3,2/1,,
7,7h[8:3],E6,B4,2,2h[8:2],E4,B5,
6xV48[8:2],4,3,1,2,3,4-1[8:1]/5-8[8:1],,
45,,2-6[8:1],2,7-3[8:1],7,4q5[8:2],,
8,,7-2[8:1],3-6[8:1],7,3,8w4[8:1],1,
8,,6p2[8:1]*q2[8:1],2,6,,4-1[8:1]/5-8[8:1],,
45,,7-3[8:1],7,2-6[8:1],2,5p4[8:2],,
1,,3<6[8:1],7>2[8:1],3,7,4w8[8:1],5,
4,,5-7[8:1],5-3[8:1],,,8-4[8:1],,
18,,35,46,5v2[8:1]/7-2[8:1],,,,
8bz4[4:1],,,,
3q7[8:1],4,2,1,
{4}
1b>7[4:1],7<1[4:1],1>7[4:1],7,
{8}
8qq2[8:3],,1,1b,,3-6[8:1]*<6[8:1],3,,
,8,5h[4:1],8,4h[4:1],1,3h[8:1],1p8[8:3],
,2,3,4,5xw1[8:1],,,,
{4}
8<2[4:1],2>8[4:1],8<2[4:1],2,
{8}
1pp7[8:3],,8,8b,,6v3[8:1],6,,
,1,4h[4:1],1,5h[4:1],8,6h[8:1],8q1[8:3],
,7,6,5,4xw8[8:1],,,,
78,6,45,3,1/2h[8:3],8,7,6,5/4-1[8:1],4,8-5[8:1],8,3-6[8:1],3,8,7,
78,5,12,3,78,5,78,5,
34,2,18,7,6h[8:2],5,1b,,
34,5,34,2,1-5[8:1]/2-5[8:1],38,12,,
65,4,65,7,8-4[8:1]/7-4[8:1],61,87,,
4-7[8:1]/3,3,2,1,8>3[8:1]/7,7,6,5,
4,5,6-2[8:1]/4-8[8:1],5,46,,5-8[8:1]/4-1[8:1],,
54,,7p3[8:1],7,2q6[8:1],2,5p4[8:2],,
1,,2v7[8:1],6v3[8:1],2,6,1-4[8:1]*-6[8:1],8,
1,,3>7[8:1]*p7[8:1],7,3,,5-8[8:1]/4-1[8:1],,
54,,2q6[8:1],2,7p3[8:1],7,4q5[8:2],,
8,,6>3[8:1],2<7[8:1],6,2,5-2[8:1]*-8[8:1],4,
5,,4-2[8:1],4-6[8:1],,,1-5[8:1],,
81,,64,53,4v7[8:1]/2q7[8:1],,,,
1s5[4:1],,,,
6p2[8:1],5,7,8,
{4}
6<5[4:13]/2h[4:1],,3h[4:1],,4h[4:1],,5h[4:1],,
6h[4:1],,7h[4:1],,8h[4:1],,1-5[8:1],,
3>5[4:11]/7h[4:1],,6h[4:1],,5h[4:1],,4h[4:1],,
3h[4:1],,2h[4:1],,
{8}
1s5[4:1],,,,
6p2[8:1],5,7,8,
{4}
2b>1b[4:13]/6,6,7,7,8,8,1,1,
2,2,3,3,4,4,5-1[8:1],,
7<8b[4:13]/3,3,2,2,1,1,8,8,
7,7,6,6,5,5,4,4-1[8:1]/5-8[8:1],
4/5p4[4:25],,D6,,A6,,D7,,A7,,D8,,A8,,D1,,
A1,,D2,,A2,,D3,,A3,,D4,,4,4,4-1[8:1],8,
7h[8:1],7h[8:1]/B5,6h[8:1],6h[8:1]/B4,5h[8:1],5h[8:1]/E4,4h[8:1],4h[8:1]/A3,
2h[8:1],2h[8:1]/B4,3h[8:1],3h[8:1]/B5,4h[8:1],4h[8:1]/E6,5h[8:1],5h[8:1]/A6,
4-6[8:1]/5,34,5-3[8:1]/4,65,4-7[8:1]/5,24,5-2[8:1]/4,75,
{8}
5,5,4,4,
{16}
5,4,6,3,7,2,8,1,
{4}
8z4[4:2],,,Chf[4:1],
{8}
8b<2[4:1],,2>8b[4:1],,8<2[4:1],1,2,1,8qq3[8:3],,7,7b,,6>3[8:1],4,6,
2-5[8:1],1,28,7,6,5qq8[8:3],4,E3f/A2/D3,,1,2,3,
{16}
E6,B5,B4,E4,E2/B2,,E8/B7,,
{8}
1b>7[4:1],,7<1b[4:1],,1>7[4:1],8,7,8,1pp6[8:3],,2,2b,,3<6[8:1],5,3,
7-4[8:1],8,71,2,3,4pp1[8:3],5,E7f/A7/D7,8,8,7,6,
{16}
E4,B4,B5,E6,E8/B7,,E2/B2,,
8bV64b[16:3],,1,,2,,1,,2-6[8:1],4,3,4,2,,7,,
8<5[8:1],,1,,2>5[8:1],,1,,7-4[8:1],,8-3[8:1],,7,,8,,
4V68b[16:3],,3,,2,,1,,2-6[8:1],1,3,1,2,,8,,5,,46,,3,,24,,3,5,4,6,Cf,,,,
1bV35b[16:3],,8,,7,,8,,7-3[8:1],5,6,5,7,,2,,
1>4[8:1],,8,,7<4[8:1],,8,,1w5[8:1],,1,,1,,,,
5V31b[16:3],,6,,7,,8,,7,8,6,1,5,2,4,3,4x,,35,,6,4,5,3,4,2,5,1,Cf,,,,
7,,18,,E7,E6,E5,E4,1,,28,,E3,E4,E5,E6,8,,12,,D8,D7,D6,D5,3,,2,,4,,5,,
2,,81,,E3,E4,E5,E6,8,,71,,E7,E6,E5,E4,1,,87,,D2,D3,D4,D5,8x,7x,6x,5x,3,,24,,
3,,54,,E3,E2,E1,E8,5,,64,,E7,E8,E1,E2,4,,56,,D4,D3,D2,D1,7,,6,,8,,1,,
6,,45,,E7,E8,E1,E2,4,,35,,E3,E2,E1,E8,5,,24,,3,5,4,6,5v7[8:1]*v3[8:1],,37,,,,,,E
