&title=心
&artist=削除 (Violin : Katali)
&first=0.06
&des=睡着了
&des_5=睡着了
&lv_5=13+
&inote_5=(70){4},{16},,,,,,,,6/4,,,3,
{8}3,3/5,{16},2,{8}2,{16}3/6p5[4:1],,,2,,,{8}1,
{16},,1,2,3/5,,,5,{8}5,4/6,{16},6,{8}6,
{16}7/5<8[8:1],,,6,5,4,{8}3,{4}4/5,(75){16}6/1>5[8:1],,,7,
{8}8,1V75[8:1],{16},3,{8}2,{16}4p1[8:3],,,5,{4}4,
{16},,,,5-1[8:1],,,1,2,3,{8}4p6[4:1],,5h[8:1],
,,7-4[8:1],3-8[8:1],{16},,,,6<1[8:1],,,4,
{8}4,3-6[8:1],{16},5,{8}5,{16}8<3[4:1],,,3,2,1,{8}8p4[8:1],
{16},,1,2,{4}3qq8[8:3],{16}7,6,{8}5V74[4:1],{16},,5,4,
3qq1qq8[8:3],,,2,4,5,{8}6h[4:1],,,(80){8}1/5,2/6V48<2[4:3],
7/3,2,{4}1q7[8:3],{16},,,,,,,,,4,
{8}5,6/3,5-7[8:1],4,5/3,4-2[8:1],5,
{16}4/6,7,{8}8-4[8:1],,8/4<8[4:1],{16},,4,3,{4}2V46[4:1],
{16}2,1,{8}8,{16},,,7,{8}8<4[4:1],2V41[4:1],{16}4q8[8:1],3,{8}2,
,,3/6V48[4:1],5,{16}4,3,{8}2q6[8:1],,7,
{4}8<4[8:1],{8}2,1pp3[8:1],,,5-8[8:1],2/8-3[8:1],
5/3-6[8:1],,,7,{12}E1/E5,{24}B3/E3,B7/E7,,E2/B2,{8}B6/E6,{24}E1/E5,,E2/B2,
{12}B6/E6,{24}E3/B3,B7/E7,,,{8}8/4>1[8:1],1<6[8:1],4/6q4[16:3],5-1[16:1],5,5,
{12}3/7,{24}6,5,,8,{8}1,{24}6/2,,3,{12}4,{24}5,6V83[4:1],,4,{8}7V14[8:1],6/C,
,,4/6,5/3pp8[0.799##0.848]*-7[0.799##0.208],(75){8}4/2,3/C,{24},,,5,6,7,
8qq4[0.8##0.6975],1,2,3,4,5,(80){4}6q3[16:3],{8},4v5[16:3],,4,
{4}6,{24}5,6,7,2b/8h[4:1],,,,,,,,,7/3,6,5,3,2,1,
8,7,6,1/5,2,3,6,7,8,1,2,3,7/4,6,5,8,1,2,8-4[16:1],7,6,5/3h[8:1],,,{8}8>6[4:1],
2q7[8:1],,,,3/5,{4}7/1-7V53[4:1],
{8}4,2qq8-4[4:1]*z6[4:1],{24},,,,,,,,,,,,2/8,3,4,8,7,6,
1,2,3,6/4,7,8,3,2,1,5,6,7,2/8,3,4,6,7,8,2,3,4,5-1[16:1],,,{8}4<2[4:1],
5/3qq2[8:1],,,,5/7,{4}2/4V26[4:1],
{8}6-8[8:1],8<5[4:1]*q4[4:1],,,,,{4}3h[8:3]/6h[8:3],
{16},,,,,,,,6/3h[16:3],,,5,6,4,3,4,
{8}7/5,3/6,{16}4/2,,,3,{8}3h[8:1],4,{16},5,{8}5h[8:1],
{16}6,,,4<2[16:3],{4}6h[#1.5],{16},,,,(75){16}4V27[4:1],,,5,
{8}6,6V83[4:1],{16},5,{8}4,{16}4-1V73[8:3],,,5,{4}6v4[8:1],
{16},,,,5<8[8:1],,,3,{8}3,1p4[0.8##0.4],{16},2,{8}2,
(70){4}3q5[8:3]*qq4[8:3],,,(65){4}3qq5[8:3]/6pp4[8:3],,,
(80){32}3b,5,2,6,{16}1,{32}8,2,7,3,{16}6,{32}4b,7,3,6,
{16}2,{32}4,3,5,4,{16}6,{32}2b,1,3,8,{16}4,{32}8,1,7,2,{16}6,{8}5h[4:1]/4b-8[16:1],{16},,4,6,
{32}7b,1,6,2,{16}5,{32}3,4,2,5,{16}1,{32}8b,3,7,4,{16}6,{32}3,5,2,4,{16}1,{32}5b,3,6,4,{16}7-3[16:1],2,
3,4,{8}7/C,{16},3,4,5,{24}7,8,5,4,1,2,{48}8b,7,6,5,4,3,{24}2,8,4,
7,1,5,{48}3b,2,1,8,7,6,{24}5,3,8,4,6,1,{48}5bs1[8:1],6,7,8,1,2,{8}3/5h[8:1],{24},,,,,,1,
5,3,8,4,6,{48}2b,3,4,6,7,8,{24}1,5,8,4,7,3,{48}6b,7,8,2,3,4,{24}5,7,3,8,2,6,
{48}4b,3,2,1,8,7,{8}6h[1:1]/4qq4pp4[4:3],,,,,,,,,(62.5){4},
{16},,,,,,,,(74){16}5/4,,,3,{8}3,6,5,4,(70){12}3/6,,2,
{8}2,(80){8}8/1,{24},6,,{8}6,5,4,(70){8}3/5,6,
(51){8}7/4,(41){8}5/8,{4}6<7p3[2:1]/8v1>2[2:1],
E
