&title=BRAVE:ROAD
&artist=uma;モリモリあつし
&first=0.06
&des=THE TRUE BRAVEROAD
&clock_count=4
&lv_5=14+
&inote_5=(240){4},{1},,{4},,,{24}8b/4b,
7/3,6pp4[4:11]/2pp8[4:11],5/1,{1},,,{4},,,{16},{48},{4}2h[2:1],
{8}5,5,{4}4<7[6:1],1,
{8},2,2,8<5[6:1],,1,{4},{8},6-2[6:1],
{4},4,4h[2:1],
,8,8,7,
{1}6bpp4[4:11]/2bpp8[4:11],
,,,{4}1/5h[8:3],
{8}2,2,{4}4-8[6:1],1,
{8},1-5[6:1],{4}1,{2}8,
7h[2:1],{4}5,5-1[6:1]/7-5[8:1],
,,{16}1/5,2,3,4,1/5,6,7,8,
{1}1b/5b,
4h[48:1],
2h[48:1],
{2}7h[48:1],{4}1,2,
{8}3h[48:1],{4},{8}3,3qq4[2:1],7,{4},,{8}7,
7,{4}5-1[6:1],6,
8,{16}2,1,2,1,{4}2,8-4[8:1],
{2}1b/8b,{24}1,2,3,4,5,6,7/3,8,1,2,3,4,
{8}5/1,{4},{8}3/7>2[8:1],3,3/7,,4/3,
{4},{8}7/3<6[8:1],7,{4}7/3,8-3[8:1]/7-3[8:1],
8/7,5-7-4[4:1]/4-7-5[4:1],{8}4/5,{4},{8}7/2,
,5/4,,6-2[8:1],8-4[8:1],6b,{4}8b,
{8}6/8,{4},{8}1-6[8:1],8-3[8:1],1-4[8:1],8-5[8:1],1-5[8:1],
8-4[8:1],{4},{8},{4},{8}2/5,3/6,
{4}4/7,{8}5/7,6/8,{16},,{24}2,3,4,5,6,7,8,1,2,
3,4,5,6,{16},{48},{4}3h[4:1],6h[4:1],2,
5/2,3/6,4/7,{8}B1/B2/E3/B3/A2/A3,B5/B6/E7/B7/A6/A7,
,8<6[8:1],1>3[8:1],8b,{4}1b,B7/B2/E7/B6/E3/B8/E2,
1/2b,4/3b,{8}3/B7,7/B3,,3/6,
,4>2[8:1],5<7[8:1],4b,{4}5b,B3/B6/E3/B2/E7/B4/E6,
1-5[8:1]/8-6[8:1],1-3[8:1]/8-4[8:1],8b/1b,{8}2/7,3/6,
,7-3[8:1],3-6[8:1],7,{4}1,1<6[8:1]/2>5[8:1],
2-6[8:1]/1-5[8:1],1/2,{8}3h[8:1],5b,,2h/7h,
,1,2,3,{24}4b,5,6,7,8,1,2b,3,4,5,{16},{48},{4}1-6[8:1],
1,{8}4/5,4-6[8:1]/5-3[8:1],,4/5,
{4},{8}2/1,3/8,{24}4/7,6,5,4,{16},{48},{4}3/7,
5h[4:1]/4>1[8:1],4,{8}5,4-1[8:1],8,4/6,
6,6,{4}6,6v4[8:1]/2v8[8:1],6-3[8:1]/2-7[8:1],
{8}6/2,{4},{8}7/3,4/8,{24}1/5,2,3,{8}4,5/1,
{4},{8}2h[8:1],3h[8:1],{4}4,8-2[4:1],
2-7[4:1],7-3[4:1],{8}3-6[4:1],8,1,2,
,2,2,2,{4}5>3[8:1]/6<8[8:1],6-2[8:1]/5-1[8:1],
{8}6/5,{4},{8}7-3[8:1],4,7,,1,
{4},{8}2-6[8:1],5,{4}2,7,
4/1>5[4:1],5<1b[4:1],{8}1>5[4:1],B1/B3/B2,,B5/B6/B7,
{4},4/3h[4:1],7h[4:1],5h[4:1],
{8}4b,{4},,{8}1,2,3,
4,{4},{8}5,{4},4,
{2}5,{8}2,2,6,{24}6bx,5,4,
3,2,1,8/4,7/3,6/2,5/1,8,7,6b-1b[8:1],{4},{16},{48},{4}5,
6b/3>8[8:1],{8}3,4,{4},2/6b,
{8},1/8<5[8:1],,8,{4}4,3,
6/5b<8[8:1],{8}5b,1,{4},7,
{8},3h[8:3],{4},5h[4:1],4,
{8}8h[8:3],{4},{8}3h[8:3],{4},7h[8:3],
{16},,{24}4,3,2,{4}1,8h[4:1],3h[4:1],
4b<7[8:1],{8}4,3,{4},1/8,
{8},4,,3,4/2,6,{4}5/7-2[8:1],
4/7,4,5,{8}5/1,4/2,
,1,5,2,6,4,5/3,7,
,1,8,2,7,3,2/6,5,
4,6,3,7,2,8,5,5,
{16}3bx,7h,3,7bx,3bx,7,3h,7bx,3bx,7,3,7bx,3bx,7h,3,7bx,
3bx,6bx,2h,6,2bx,6bx,2,6h,2bx,6bx,2,6,2bx,6bx,2h,6,
{8}E8/B7,B3/E4,,B1/B2,{4}B6/B5,{8}A8/B8/B7/D8/E7/B6,A4/B4/B3/D4/E3/B2,
{4},2-5[8:1],2/6-1[8:1],2/6,
2b/7b-4[8:1],{8}1x/7x,1,1x,1x,2/5,2/6,
5-7[8:1],1,5,3,{24}E3,B2,B1,6/E1,{16},,,{48},{8}6,
{4}2-5[8:1],{8}2/7,8-4[8:1],,8/3,{4}1-5[8:1],
1/6-1[8:1],{8}6/3,2,{16}3x,4x,{8}5x,{16}4/8,3/7,{8}2/6,
{4}6b/2b-5[8:1],{8}8x/2x,8x,8x,8x,7/4,7/3,
4-2[8:1],8,4,6,{24}E7,B7,B8,3/E1,{16},,,{48},{8}3,
{4}7-4[8:1],{8}7/2,1-5[8:1],,1/6,{4}8-4[8:1],
8/3-8[8:1],{8}3/6,7,{16}6x,5x,{8}4x,8h[8:1],4h[8:1],
{4}1b-5[8:1],{8}7x/1x,7x,7x,7x,8/4,8/3,
2-6[8:1],7,2,8,{24}E6,E5,E4,8h[4:1]/E3,{16},,,{48},{8}1,
2/7,7-3[8:1],,4-8[8:1],,8w4[8:1],{4},,{8}2/6,
2,3/7,7,{16}4h,8,4,8,
{8}3,7-5[8:1],2,7,{4}3>8[4:1],8<5[4:1],
5>2[4:1],8,{24}8,7,6,5,{16},{48},{4}2-5[8:1],
{8}2,7-1[8:1],4,7,3-8[8:1],6,3,7,
B2/B3/E3f,{4},{8}B7/E7f/B6,{4},,{1}1bpp5[2:5]/5bpp1[2:5],
,,{16}4,
8,4,8,4,8,4,8,4,8,4,8,4,8,4,8pp6[16:37],
{1}4pp2b[4:9],
,{4},,{6},{12}7,
3,6,2,
5,4,6,3,5,4,6,7,8,1/3h[4:1],{6},{12}7b,
8,1,2,3,4,5/3,2/6,1/7,8,{6},{12}3b,
4,5,6,7,8,1/7,6/2,5/3,4,{6},{12}3b,
5,4,6,3,7,8/3,7/2,6/1,5/8,{6},{12}6b,
2,5,3,6,2,1/6,2/7,3/8,4/1,{16},,{24},{16}1b/8b,
7,6,5,{4}4/8h[4:1],{16}5,6,7,8,{4}2/1h[4:1],
{16}2,3,4,5,{4}6/8h[4:1],{24}7,6,5,4,3,2,1,8,7,6,5,4,
{2}3bh[2:1],7bh[2:1],
{4}1b,E7,E3,E6/E5/E4,
{1}E8/E1f/E2/A8/A1/D8/D2,
8h,
7h,
{4}6h,,,{8}4,3,
{2}5h,3/6,
{8}4h,{4},{8}3/5,{4},1/7,
{1}2bh[2:1]/6bh[1:1],
{16}1h,8,1,8,1,8,1,8,1-5[8:1],8,1,8,{4}1w5b[8:1],
,{8}3x,3x,3x,3x,8,7/2<8b[8:1],
,2/6>4[8:1],,6/1,{24}E2,E3,E4,7/E5,{16},,,{48},{8}8/4,
3/7,2/6-2[8:1],,6/3-7[8:1],,3/1w5[8:1],{4},,{8}3/7,
2,1/6,7,{16}3,8,3,8,
{4}4-8[8:1],{8}4/7,6-2[8:1],,6/2-5[8:1]*-7[8:1],,E2/E3,
{4},4>1[8:1]/8<5[8:1],{16}E8/E4,E7/E3,{8}E6/E2,{4}A6/B6/A2/B2,
{8}8,4>2[8:1],7,4,6-4[8:1],1,{4}6,
{8}1,7/1w5[8:1],,1,,7/3,2/8,1,
7-4[8:1],7,1-5[8:1],1,8-4[8:1],8,2-5[8:1],2,
6-1[8:1],6,4-8[8:1],4,5-1[8:1],5,2,2,
{16}3,4,{8}5h[8:1],{16}8,7,{8}6h[8:1],{16}1,2,{8}3h[8:1],{16}6,5,{8}4h[8:1],
{32}2,1,8,7,6,5,4,3,2,1,8,7,6,5,4,3,2,E1,E8,E7,E6,E5,E4,E3,E2,B8,B7,B6,B5,B4,B3,B2,
{8}B1/Cf,{4},,,{8}E5f,
{4},E8/D8,E1/D1,E2/D2,
{8}3h[4:3]/6h[4:3],{4},,,{8}4h[4:1]/5h[4:1],
{4},E6/D6/E4/D4,E7/D7/E3/D3,E8/D8/D2/E2,
{8}8x/1x,8x/1x,7x/2x-5[8:1],8x,2,7x-4[8:1],1x,7,
{8}1x-5[8:1],7x,1,8x-4[8:1],2x,8,1bx-5b[8:1],,
{8}8x/1x,7x,6x-4[8:1],3x,6,2x-8[8:1],7x,2,
{8}7x-3[8:1],3x,7,{16}2x,1,8x-4[8:1],7,6,5,4bx/8bx,,,,
{8}2x-4[8:1],1x,2x,8x-6[8:1],2,8x,1x-5[8:1],8,
{8}1x,7x-5[8:1],4,7x,4x-8b[8:1],,6bx-2[8:1]/4bx,,
{8}6b/B6f,,1x,1bhx[8:1]/8x`E8f,,7x,6x,5bhx[8:1]/4x>6[8:5]`E4f,
{8},1,8,7,6,5,4-8[8:1],,
{8}1x-3[8:1],1x,7-5[8:1],7x,8-4[8:1],8x,7-5[8:1],7x,
{8}1-3[8:1],1x,8-4[8:1],8x,1^6b[8:1]*^4b[8:1],,1bx,,
{8}5x,5x,6x/4x,7x/3x,2,1,7x/8x,6x/1x,
{8}5,4,5x/3x,6x/2x,{16}7,8,1,2,3x/8x,1,2,3,
{8}4x/7x,7,7,6x/3x,3,3,5x/2x,5,5,
{8}4x/1x,1,1,5x/2x,6,7x>7[4:2]*>7-1-3-5-7[4:4]*>7-1-3-5-7^1^2^3^4^5^6^7^8b[4:6]/4x,3,
{1},
{4},,,1x,
{8}7h[16:1]/3h[16:1],7h[16:1]/3h[16:1],7hx[16:1]/3hx[16:1],6h[16:1]/2h[16:1],6h[16:1]/2h[16:1],6hx[16:1]/2hx[16:1],5h[16:1]/3h[16:1],6h[16:1]/4h[16:1],
{8}7hx[16:1]/5hx[16:1],8hx[16:1]/4hx[16:1],7hx[16:1]/3hx[16:1],6hx[16:1]/2hx[16:1],{24}1x,2,3,8x,7,6,2xw6b[4:4],3,4,7x,6,5,
{1},
{16},,,,,,3,5,1bx,,,,,,,,
{16}5/3,,5/3,,6/4,,6/4,,7x/3x,,2,8,1,,3x,,
{24}6h,,,1xh,2x,3x,5h,,,8xh,1x,2x,6h,,,6h,,,5h/3h,,,5h/3h,,,
{16}4h,6h,2h,8h,3h,5h,1h,7h,3h,8h,4h,6h,{32}2-6b[16:1],3h,4h,5h,6h,7h,8h,1h,
{32}2bh/Cf,
