&title=Melodiniq
&artist=onoken a.k.a. owl*tree
&first=0
&des=Jian
&lv_6=15+
&inote_6=(193)
{1},
{12}E3,,,,,,E6/B6,,,,,,
{2}B1h[8:4],,E7,E2/B2,B5h[8:4],,
{2}2h[2:1],6h[2:1],4-1[8:4],,7bh[2:1],5h[2:1],
{2}3h[2:1],1h[32:15],
{32}2b/8b,37,4>5[32:100]*>5[32:100]/6,5q4b[4:9],,,,,,,,,,,,,
{2},,,,,3qq8[1:2],,
{1}7qq4b[1:2],,2<3[1:2],,7bV13<6b[1:3],,
{2},1,8q2[1:2],,4q6b[8:15],,,,1s5[2:3]*V73[2:3],,,,
{16}1,2,3,4,5,6,7,8,6,7,8,1,2,3,4,5,
{16}2,1,2,1,3,8,3,8,4,7,4,7,5,6,5,6,
{16}7,8,1,2,3,4,5,6,2,3,4,5,6,7,8,1,
{16}6,4,6,4,5,3,5,3,4,2,4,2,3,1,3,1,
{16}8,7,6,5,4,3,2,1,6,5,4,3,2,1,8,7,
{16}3,4,3,4,2,5,2,5,1,6,1,6,8,7,8,7,
{16}6,5,4,3,2,1,8,7,3,2,1,8,7,6,5,4,
{16}8,1,7,2,6,3,5,4,7,8,6,1,5,2,4,3,
{4}2-5[8:1],2/6-1b[8:1],6/3-8[8:1],3/7-4b[8:1],7/1-6[8:1],1/3-8b[8:1],3/5-2[8:1],57,7-4[8:1]/1,3-8b[8:1]/7,3/6-3b[8:1],1-4[8:1]/6,1/7-2b[8:1],7/5<1b[6:1],
{8}1,3,5,,
{8}
8^5[8:1],,2,3-7b[8:1],,6,5-1[8:1],,2,3,4-8b[8:1],,4-1[8:1]*^7[8:1],,4,,2^5[8:1],,7,8-4b[8:1],,2,3-7[8:1],,6,5^8b[8:1],,
{16}1,2,3,4,5,6,7,8,1,2,
{8}6hb[2:1],5,4,3,2h[8:1],4h[8:1],5h[8:1],7qq4[2:1],
{8},4,3,2,1,8,1,2,
{8}3h[8:1],4h[8:1],5h[8:1],6,8,2,6v4[8:1],4-2[8:1],
{8},,,,,,,3,
{8}3hb[2:1],4,5,6,7h[8:1],5h[8:1],4h[8:1],2pp5[2:1],
{8},5,6,7,8,1,8,7,
{8}6h[8:1],5h[8:1],4h[8:1],3,1,7,2V48b[8:5],5s1[2:1],
{8},,,,,,,2,
{8}2>6b[2:1],,,,6<1b[3:1],,,4h[2:1],,,,2,3,4,5,6h[4:1],,E2/B2,,7,6,5,4,3V17[4:1],,7V53[4:1],,3,,8,7,6,
{8}5<1b[2:1],,,,1>4b[3:1],,,5h[2:1],,,,7,6,5,4,3h[4:1],,E6/B6,,2,3,4,5,6h[4:1],
{8},E3/B3,,,1,8,2,7,3/B6,4,5,6,3,4,5,6,
{8}2/B7,1,8,7,2,1,8,7,
{8}6/B3,5,4,3,6,5,4,3,B2/7,8,1,2,7,8,1,2,
{8}35,3,47,7,25,3,48,7,
{16}15,2,3,4,15,8,7,6,15,2,3,4,15,6,7,8,
{1}1bw5[2:1]/5b,
(196)
{12}3hb[384:1],7,1h,5,3h,7,5h,1,5h,7,1h,5,
{12}3h,1,5h,7,1h,5,3h,1,5h,7,3h,5,
{8}28,3,45,6,17,6,45,3,
{8}28,1,17,8,
{32}1bw5b[8:1],2,3,4,5,6,7,8,,,,,,,,,
{8}13,2,68,7,
{12}1/5hb[384:1],2,3,4/8hb[384:1],5,6,
{12}7/3hb[384:1],8,1,2/6hb[384:1],3,4,5/1hb[384:1],6,7,8/4hb[384:1],,,
{8}5^8b[8:1],8v5b[8:1],4,3,1^4b[8:1],4v1b[8:1],7,6,5,26,26,37,
{32}4,5,6,7,8,1,2,3,4b/8b,,,,,,,,
{12}6hb[384:1],2,8h,4,6h,2,4h,8,4h,2,8h,4,
{12}6h,8,4h,2,8h,4,6h,8,4h,2,6h,4,
{8}35,2,18,7,46,7,18,2,
{8}35,4,46,5,
{32}4bw8b[8:1],3,2,1,8,7,6,5,,,,,,,,,
{8}42,3,75,6,
{12}4/8hb[384:1],3,2,1/5hb[384:1],8,7,
{12}6/2hb[384:1],5,4,3/7hb[384:1],2,1,8/4hb[384:1],7,6,5/1hb[384:1],,,
{16}2,4,3,3,7,5,6,6,1,3,2,2,8-4[6:1],,6,,4bw8b[2:1],,,,,,,,
{2},
(206)
{12}2b,2,2,4b,4,4,6b,6,6,8b,8,8,1b,1,1,7b,7,7,5b,5,5,3b,3,3,
{16}28,3,4,5,68,5,4,3,28,3,4,5,68,5,4,3,17,6,5,4,31,4,5,6,17,6,5,4,31,4,5,6,
(209)
{12}3b,3,3,1b,1,1,7b,7,7,5b,5,5,4b,4,4,6b,6,6,8b,8,8,2b,2,2,
{16}35,2,1,8,75,8,1,2,35,2,1,8,75,8,1,2,46,7,8,1,24,1,8,7,46,7,8,1,24,1,8,7,
(212)
{12}2b,2,2,2/4b,4,4,4/5b,5,5,5/7b,7,7,7/5b,5,5,3b/5,3,3,3/1b,1,1,1/7b,7,7,
(215)
{24}1,2,3,5,6,7,1,2,3,5,6,7,2,3,4,5,6,7,2,3,4,5,6,7,
{24}2,3,4,6,7,8,2,3,4,6,7,8,1,2,3,6,7,8,1,2,3,6,7,8,
(218)
{24}3b,4,5,6,7,8,1,2,3,4,5,6,7,8,1,2,3,4,5,6,7,8,1,2,6b,5,4,3,2,1,8,7,6,5,4,3,2,1,8,7,6,5,4,3,2,1,8,7,
(221)
3b,2,1,8,7,6,5,4,3,2,1,8,7,6,5,4,3,2,1,8,7,6,5,4,7b,8,1,2,3,4,5,6,7,8,1,2,3,4,5,6,7,8,1,2,3,4,5,6,7,
(224)
{12}38,2,1,47,6,5,27,1,8,36,5,4,38,2,1,47,6,5,27,1,8,25,3,4,
(227)
{24}71,2,3,4,5,6,7,8,1,2,3,48,51,6,7,8,1,2,3,4,5,6,7,84,
{24}15,6,7,8,1,2,3,4,5,6,7,48,51,2,3,4,5,6,7,8,1,2,3,4,
(230)
{24}3,5,3,5,3,5,2,6,2,6,2,6,1,7,1,7,1,7,8,8,8,8,8,8,
{24}8b,1,2,3/8b,7,6,5/8b,1,2,3/8b,7,6,52,3,4,5,6,7,84,51,26,37,84,15,2bp8>4[2:3]/6bp4<8b[2:3],,,,,,,,,,,,,,,,,,,,,,,,
(236)
{1},
{8}2-5[8:1],2,7,7,6,6,3,3,
{8}4,4,3,2,6,6,5,7,24,3,57,6,34,2,56,7v5-3b[4:1],,,2,2,1,3,5,7,
{8}8-4[8:1],8,2,2,3,3,5,5,7,7,6,5,3,3,4,2,
{8}6,4,2,78,78,16,25,3bqq8b[2:1]/4bqq7[2:1],
{1},
{4}3q5[2:1],7,6^1b[8:1],A6,4p2[2:1],8,1^6b[8:1],A1,
{4}5p3[2:1],3,2^7b[8:1],A2,4q6[2:1],2,1^4b[8:1],A1,
{8}B7h[8:1]/B8h[8:1]/E8hf[8:1],,3,3,2,2,6,6,5,4,2,6,6,8-4b[8:1],2,3,,3,3,5,5,6,7,7,
{16}2,5,2,5,3,6,4,7,4,7,3,6,2,5,2,5,
(240)
{8}B1h[8:1]/B2h[8:1]/E2hf[8:1],,
{16}6,5,6,5,7,4,8,3,1,2,1,2,
{16}4,3,4,3,5,2,6,1,7,8,6,1,5,2,6,3,
{12}2b,1,8,7,6,5,4/1b,8,7,6,5,4,
{12}3/8b,7,6,5,4,3,2/7b,6,5,4,3,,
{16}1,8,1,8,2,7,3,6,
{16}4,5,4,5,
{16}3,1,2,8,
{16}3,7,4,6,3,5,2,6,1,7,2,6,3,5,2,6,
{12}7b,8,1,2,3,4,5/8b,1,2,3,4,5,
{12}6/1b,2,3,4,5,6,7/2b,3,4,5,6,,
{16}8,1,8,1,7,2,6,3,5,4,6,5,7,4,8,3,
{16}1,2,1,2,8,3,7,4,6,5,7,4,6,3,5,2,
{32}E6h[8:1],,,,1b,2,3,4,
{8},
{32}B6h[8:1],,,,1b,2,3,4,
{8},
{32}E7h[8:1],,,,2b,3,4,5,
{8},
{32}B7h[8:1],,,,2b,3,4,5,
{8},
{32}E8hf[8:1],,,,3b,4,5,6,7,8,1,2,3,4,5,,
{16}7,8,7,8,6,1,5,2,4,3,4,3,5,4,6,3,
{16}7,2,8,1,8,1,7,2,6,3,5,4,6,5,7,4,
{32}E4h[8:1],,,,8b,7,6,5,
{8},
{32}B3h[8:1],,,,8b,7,6,5,
{8},
{32}E3h[8:1],,,,7b,6,5,4,
{8},
{32}B2h[8:1],,,,7b,6,5,4,
{8},
{32}E2hf[8:1],,,,6b,5,4,3,2,1,8,7,6,5,4,,
{16}12,5,12,5,12,5,12,5,23,6,23,6,23,6,23,6,34,7,34,7,34,7,34,7,45,8,45,8,45,8,45,8,
{24}3b,2,1,8,7,6,2b,1,8,7,6,5,1b,8,7,6,5,4,8b,7,6,5,4,3,
{24}7b,6,5,4,3,2,6b,5,4,3,2,1,5b,4,3,2,1,8,4b,3,2,1,8,7,
{16}56,1,56,1,56,1,56,1,67,2,67,2,67,2,67,2,
{24}8b,7,6,5,4,3,8b,1,2,3,4,5,8b,7,6,5,4,3,8b,1,2,3,4,5,
{32}8,7,3,4,8,7,3,4,8,7,3,4,8,7,3,4,6,5,1,2,6,5,1,2,6,5,1,2,6,5,1,2,
{32}7b/3b,62,51,48,3,2,1,8,7b/3b,26,15,48,7,6,5,4,3,2,1-5>7<3b[0.48##3.3],,,,,,,,,,,,,,
(160){1}Chf[32:1]/B2h[32:1]/B3h[32:1]/B4h[32:1]/B6h[32:1]/B7h[32:1]/B8h[32:1]/B1/B5/A7/A3/E8/E3/E7/E4,
,
{2}3>7b[2:1],7<3[2:1]*<3[2:1],3>3[1:1],,
(120)
{8},,
{16}B8/E8,,
{12}B2,E4,B5,
{16},
{12}E8,E7,E6,E5,
{12}E4,
{16}E2/B2,,E4/B4,,E6/B6,,,,E1/B8/B1,,
