&title=六天照來
&artist=Se-U-Ra
&first=0.38
&des=刻木
&lv_5=14
&inote_5=(139)
{24}E7,B6,B5,B4,,,,,,,,,E3,E4,E5,E6,,,8-4[8:1],,,,,,
8b,,,,,,1>4[8:1],,8,1,,,1b,,,,,,7<4[8:1],,8,7,,,
7b,,,,,,2,,2,8,,8,7x/3x,,,8/4,,,2-6[8:1]/6,,,,,,
2b,,,,,,8<5[8:1],,3,8,,,8b,,,,,,2>5[8:1],,7,2,,,
2b,,,,,,7,,7,5,,5,6,,6,4,,4,7x-2v5V38[8:6],,,,,,
7/4,,,,,,,,,,,,,,,,,,1xV35-7v2[8:5],,,,,,
1/6,,,,,,,,,,,,,,,,,6b/3b,,,,8/1,,,
7/2,,,6,,6,5,,5,6,,,1/7,,,3,,3,4,,4,3,,,
8/2,,7,,7,5,,5,6,,6,3,,3,4,,4,2x,1xs5b[4:4],8x,7x,6x,,,
,,,,,,,,,,,,,,,,,,,,,,,,
,,,E8,,,B4,,,B6,,B2,A2,,A5,D5,,E1,A1,,,,,,
3h[12:1],,,4,,,3h[12:1],,,4,,,2h[12:1],,,4h[12:1],,,3,,,,,,
6h[12:1],,,5,,,6h[12:1],,,5,,,6h[12:1],,,5h[12:1],,,4-7V51[8:5],,,,,,
B3h[4:2]/E4/E3,,,,,,,,,,,,,,,,,,7b/3b,,,,,,
1/6,,7,8,,,1/6,,7,8,,,1/6,,7,8,,8,7,,,5,,,
8/3,,2,1,,,8/3,,2,1,,,8/3,,2,1,,1,2,,,4,,,
1/6,,7,8,,,1/6,,7,8,,,1/6,,7,8,,8,7,,,5,,,
7/4,,,6,,6,2-8[8:1],,2,7-3[8:1],,7,2-5[8:1],,,,,,,,,,,,
8/3,,2,1,,,8/3,,2,1,,,8/3,,2,1,,1,2,,2,8,,,
1/6,,7,8,,,1/6,,7,8,,,1/6,,7,8,,8,7,,7,1,,1,
{24}6bx/2hx[24:5],,,,,{64}E6,B5,B4,E4,,,,,{24},1bx/5hx[24:5],,,,,{64}E2,B2,B3,E4,,,,,{24},8bx/4bx,,,6/2,,,
{32}7,6,5,4,3,2,1,8,7,6,5,4,3,2,1,8,7,6,5,4,3,2,1,8,7b/3,,,,,,,,
{24}1>5[8:4],,,,,,,,,8x,,7x,6x,,,,,,,,,,,,
8<4[8:4],,,,,,,,,1x,,2x,3x,,,,,,,,,6,7,8,
1,,,,,,8,,,,,,7,,,,,,6<2<6[8:7],,,,,,5,,,,,,4,,,,,,3,,,,,,2,,,,,,
1V35[8:4],,,1,,,,,,8,,7,6,,,,,,,,,,,,
8V64[8:4],,,8,,,,,,1,,2,3,,,,,,2,,,6,7,8,
1<2[8:4],,,,,,1h[8:5],,,,,,,,,,,,,,,,,,
7/8,,7/8,,,1b/6b,,,,1/2,,1/2,,,8b/3b,,,,C,,,,,,
6/5,,,4,,,3,,,7V13[8:2],,6,5,,,,,,,,,,,,
2/4,,,5,,,6,,,2<1-6[16:3],,3,4,,,,,,,,,4x,5x,6x,
7x,,,,,,6,,,,,,5,,,,,,4-8[8:1],,,,,,
3b-7[8:1],,,,,,2b-6[8:1],,,,,,1b-5[8:1],,,,,,8b-4b[69.5#16:1],,,,,,
,,,,,,{128}8x,Cf,,,,,,,,,,,,,,,{24},,,1/6,,,1/6,,,7/2,,,7/2,,,
8-2>3[8:1]/3,,,,,,7/8,,,,,6,4<5-7[16:2],,,8/2,,,,,,,,,
1/3,,,8/2,,,7/1,,,8/6,,,7x/5x,,6,4,,5,3,,4,2,,3qq6[4:2],
1>8b[8:5],,,,,,,,,,,,,,,,,,,,,,,,
E4h[8:7],,,,,,C,,,,,,E8,,,,,,,,,E1h[8:7],,,,,,,,,C,,,,,,E5,,,A4,A3,A2,A1,,,,,,
E8h[4:5]/E2h[4:5],,,,,,,,,,,,,,,,,,,,,,,,
,,,,,,,,,,,,6,5,4,3,,6,5,,4,3,,,
7/2,,,7,,,7/2,,,7,,8,7,,,7/1,,,2/7,,,7/3,,,
4/8,,,4,,,4/8,,,4,,5,4,,,4/6,,,4/7,,,4/8,,7,
6,,4,3,,6,5,,3,2,,5,4,,2,1,,4,3,,1,8,,3x,
4x,5x,6x,7x/8,1,2,5,6,7,8/1,2,3,6,7,8,1/2,3,4,5,6,7,8,1,2,
3b-8-4[8:4]*-6-2[8:4],,,,,,,,,,,,,,,,,,,,,,,,
1,,1,8,,8,7,,7,6,,6,5b>1[8:1]*pp7[8:1],,,,,,5bx,,,,,,
8/3,,6,5,,,7>2[8:1]/2,,5,4,,,7<4[8:1]/3,,,4,,7,1-6[8:1]*-4[8:1],,,2,,,
1,,,,,2,5,3,6,4,7,5,8q5[8:1],,,7/1,,,8/3,,,,,,
6h[24:4]/4,,,,,5,6,,,3h[12:2]/8,,,,,1,3,,,8h[12:2]/1,,,,,5,
8<4[4:1],,,2,,,4V61[24:5],,,2,,,8x<5[8:1]*pp2[8:1],,,,,,{64}E8f,E7,E6,E5,,,,,{24},,,
1/6,,3,4,,,2<7[8:1]/7,,4,5,,,2>5[8:1]/6,,,5,,2,8-3[8:1]*-5[8:1],,,7,,,
8,,,,,7,4,6,3,5<8[8:1],2,4,1v4[8:1],,,5,,,1,,,,,,
3/5,,,6,,6,4,,,8/5,,,7,,7,1,,,4/8,,,3,,3,
5-1[8:1]/2,,,6,,,7<6-2>3-8[8:3]*-4b[8:1]/5,,,,,,7,,,,,,,,,,,,
6h[4:1],,,,,,{32}E6,E7,E8,E1,E2,E3,E4,E5,E6h[4:1],,,,,,,,8,,,,,,,,
E4/3hx[12:2],E3,E2,E1,E8,E7,E6,E5,B2/E4fh[4:1],B1,B8,B7,B6,B5,B4,B3,B2,,,,,,,,1s5[8:17]/7,,,,,,,,
{24}6xh[24:5],,,,,,5,,,6xh[24:5],,,,,,4,,,6xh[24:5],,,,,,
3,,,6xh[24:5],,,,,,2,,,1-5b[8:1],,,6,,,1b,,,,,,
7,8,7,8,,6,1,,1,7,,7,2,8,2,8,,3,4/2,,,1,,,
7h[12:2],,,2,,2,1,2,8,2,7,2,6,,5,6/4,,,8h[8:1]/3h[8:1],,,,,,
2bx,3,4,7bx,6,5,1bx,2,3,8bx,7,6,2bx,3,4,5bx,6,7,1bx,2,3,4bx,5,6,
{32}1b,2,3,4,5,6,7,8,1w5b[8:1],2,3,4,5,6,7,8,1,,,,,,,,6<1[8:1]/2>5[8:1],,,,,,,,
{24}6bx/2bx,,,,,,8<5[8:1]/4>1[8:1],,7,3,,3,8bx/4bx,,,,,,4<7[8:1]/8>3[8:1],,1,5,,5,
8bx/4bx,,,,,,6/2,,7,3,,3,6/2,,,8/4,,,7<4b[8:1]/3,,,,,,
7bx/3b,2,1,8,,,6<1b[8:1],,6,2,,,6bx/2b,3,4,5,,,8<5b[8:1],,8,4,,,
8bx/4b,3,2,1,,,4,,4,8,,8,5bx/1bx,6/2,7/3,8/4,,,1bp7[4:3]/5bp3[4:3],8/4,7/3,6/2,,,
