&title=Vulcanus
&artist=Team Grimoire vs Aoi
&first=0
&des=l41 vs uZagi
&lv_5=14+
&inote_5=(212)
{1},,
8b-6v1[4:14]/4b-2v5b[4:14],,,,
1b-6-4-7[4:14]/5b-2-8-3b[4:14],,,,
{4}3h[4:4],,,,5h[4:4],,,,
7>3[4:7],,5,,6,,7,,8-4[4:3],,,,1-5[8:6],,,,8-3v4-1[4:6]*-5v4-7[4:6],,,,,,,,
2h[16:1]/6h[16:1],,,,
{8}8b/3b,,3,,3,B7,B6/3,B5,3,,3,,3/E6,,3/E5,,2/E4,,2,,2,B3,2/B4,B5,2,,2,,5/1-5[8:1],,6,,
7b/2b,,7,,7,B4,B3/7,B2,7,,7,,27,,1-5[8:1]/8-4[8:1],,
1b/8b,,3,2,18,7,26,3,4b-1[8:1]/6b-1[8:1],4b/6b,4b/6b,,{12}2x,2x,2x,8x,8x,8x,
{16}1w5[8:1],,,,1b/Cf,,,,7h[8:1],,4,,3/7h[8:1],,2,,
6h[8:1],,,,6h[8:1],,,,6h[8:1]/1-4-2[8:1],,,,6h[8:1],,,,
5bx-8[8:1]/1bx-4[8:1],,1bx/5bx,,,,,,3h[8:1],,7,,3/6,,53,,
2,,2,,6/2h[8:1],,,,1h[8:1]/8h[8:1],,,2h[8:1]/7h[8:1],,,36,,
{32}4x-1[8:1],5x-8[8:1],4x,5x,,,,,{16}4b/5b,,,,27,,27,,3b/6b,,3bh[8:3]/6b,,,,4,,4<7b[8:1],,,,4/1-5b[8:1],,,,1,,,,
4b/7b,,7,,36,,36,,5,,25,,1,,1,,2,8,2,8,2,8,2,8,{32}3,4,5,6,7,8,1,2,3,4,5,6,7,8,1,2,
{16}3/5>2[8:1],,,,7/5b,,6,,1h[8:1],,5,2h[8:1],,4,3h[8:1],,
5-7-4[16:3],,,4-1[16:3],,,3h[8:2],,,,,,2,,2,,
2-5[8:1],,5-3-8[4:1],,2,,7h[4:1],,,,,,7/1-4-6-2[8:3],,71,,
7h[4:1]/1,,,,,,,,7-3[8:1],,3<5[8:1],,7,,,,
1-4-6[16:3],,,6-2[16:2],,,7,,7-1-3[16:3],,,3-8[16:2],,,4,,
4bx,,4bx,,5b/7b,,7b/5b>2[8:1],,,,8,,8h[4:1],,,,
1,2,3,4,15,,1,8,7,6,15,,8,1,2,3,4b-1[8:1],,5b-8[8:1],,4b,,5b,,{12}2b,1,1,3b,8,8,
4h[4:1],,,{32},B4,C,B8f/B1/B7,,,,,
{16}6-8-2[16:3],,,2-5[8:1],,,3,,3-8-4[16:3],,,4-7[8:1],,,5,,6,,6h[4:1],,8,,1,,
2,5,3,4,2b,,7,4,6,5,7b,,1,2,3,4,8,7,4,3,7,6,3,2,6,5,4,3,2,1,8,7,
6-3[8:1]/4,,3-8-4[4:1],,2h[16:5]/6,,,,,,,,25,,2,,
3-5[8:1]/6,,,37,,,8,,8,7,6,5,8,1,2,3,
6-3[8:1],,3-5-7[4:1],,6,,2h[16:3],,,,,,38,,38,,
4>1[8:1]/7,,,74,,,6,,5,6,7,8,2,3,4,5,
7b,,7b-4b[8:1],,,,2b-5-2b[4:1],,,,8b,,8b-4-8b[8:2],,,,
,,1b,,1b-5b[8:1],,,,7b,,,7b,,,6b,,
3b/5b,,3bh[8:1]/5b,,,,4b/6b,,4b/6bh[8:1],,,,3b/5b,,4b/2bh[8:1],,,,4b/6b,,5b/7bh[8:1],,,,8b-4[8:1]/1b-5[8:1],,,,,,,,
Cf/B2/B3/E3/E7/B6/B7/A2/A3/A6/A7,,,,,,,,3,5,3,5,2,4,2,4,
2-5[8:1],,5-3-1[4:1],,2,,,,7-5-1[4:1],,7,,7,,,,
2-6[8:1],,,,8h[4:1],,,,5,7,5,7,4,6,4,6,3,5,3,5,2h[4:1],,,,6p4[4:1],,6,,1,,,,
E4f/B3/B4/E5/E3/D5/D4/D3/A3/A4,,,,,,,,2>4[8:1],,7<5[8:1],,2,,7,,1v4[8:1],,8v5[8:1],,1,,8,,3-6[8:1],,6-2[8:1],,3,,,,7-4[8:1],,3-7[8:1],,7,,3,,5<7[8:1],,8-3[8:1],,5,,8,,
7,6,5,4,3,2,1,8,37,,46,,5-1[8:1],5,5,5,
5b/Cf/B5/B1,,,,,,,,4/3>7[4:1],,,,4,,4p6[4:1],,,,3,,3>7>3[8:3],,,,4,,4,,5,,5,,
4qq5[4:1]/6h[4:1],,,,4,,,,6<2[4:1],,,,5,,5q3[4:1],,,,6,,6<2<6[8:3],,,,5,,5,,4,,4,,
3bh[4:1],,,,5,,5,,46,,7,,5,,5,,46,,3,,2-4[8:1],,2-8[8:1],,2-6-2[8:2],,,,,,,,
8,,8,,73,,37,,26,,26,,15,,15,,4/8,1,2,3,4/1,8,7,6,{24}2/5,1,8,7,6,5,{32}2/4,1,8,7,6,5,4,3,
{96}6b-8-2-4-6>8b[4:30],2x-4-6-8-2<4[4:30],,{64},,,,,,,,,,,,,,{4},,,{1},,,,,,,
{8}7-3b[8:1],,5,5-1[8:1],,2,2h[4:1],,8<4[4:1],,4>7[4:1],,3h[4:1],,,,
2-5b[8:1],,6,6>3b[8:1],,7,7h[4:1],,2-5b[8:1],,2/5>7b[4:1],,6h[4:1],,,,
5<2[4:2],,4,4,,3,3,,3h[4:2],,4>5[4:2],,4,,,,
2h[8:3],,,6h[8:3],,,3,,7h[4:2],,,,4,,4,,3h[4:2],,,,5h[8:11],,,,1bh[8:7],,,,,,,,
{4}1b>6b[4:22]/5,,,,,,{32}A6,D6,,,,,,,,,,,,,,,D8,A7,,,,,,,,,,,,,,,{4},,,,{32}D1,A1,,,,,,,,,,,,,,,
{4}2hx[4:7],,,,,,,,
{32}2/6b,1/5b,4b/8,3b/7,2bh[8:10]/6h[8:10],,,,{4},,,,,2-6[8:1]/6-2[8:1],Cf,
{16}1b/7b,,4,3,5,4,6h[8:1],,8>3[8:1],,,7,8,,6,,5<8[8:1]/4h[8:1],,,4,5,,3,,2,3,4,5,1,8,7,6,
3-5[8:1],,5-1[8:1],,3,,,,7<4[8:1],,,8,7,,1,,2>4[8:1],,4<6-1[4:1],,,,7,,7-3[8:1],,,,27,,,,
1b>4[8:1],,,,1b<6[8:1]/8,,,,2/1b-4[8:1],,,,1b<6b[8:1]/8,,,,{32}2bv5b[8:1]/1b,3,4,,,,,,2b/8b-4b[8:1],7,6,,,,,,8b/1bw5b[8:1],2,3,,,,,,1b,B1,Cf,B5,,,,,
{24}7b,6,5,4,3,2,1/4b,5,6,7,8,1,2/6b,5,4,3,2,1,{32}8/3b,4,5,6,7,8,1,2,
{16}3b/Cf,,,,,,,,46,,46,,37,,37,,
2b>5[8:1]/8b,,3,4,2,,1,,8-5[8:1],,1,2,8,,3,,4-8[8:1],,5,6,4,,7,,7,1,6,4,5,3,4,,
3-8[8:1],,4,5,3,,6,,7v4[8:1],,6,5,7,,1,,{12}2b,4,4,7b,5,5,3b,1,1,6b,8,8,
{16}5b,,7>2[8:1],5,6,5,7,,4,,3>8[8:1],5,4,5,3,,7-4[8:1],,6,5,7-3[8:1],,1,1,7w3[8:1],,,,7b,,,,
1,5,1,5,2,6,2,6,3,7,3,7,4,8,4,8,{32}4b,3,2,1,8,7,6,5,4b,3,2,1,8,7,6,5,4b/E1,E2,E3,E4,E5,E6,E7,E8,E1,E2,E3,E4,E5,E6,E7,E8,
{1}E1f/Ch[4:6],,{96}3pp6b[4:5],7xpp2[4:5],,{32},,,,,,,{4},,,,,,,
{32}6b/2b,15,48,37,2h[8:5]/6,5,4,3,,1,8,7,6,5,4,3,,1,8,7,6,5,4,3,{48},1,8,7,6,5,4,3,2,1,8,7,
{8}6b/Cf,,,2,6-3[8:1],3-5[8:1],2,2,1-5[8:1],5-2[8:1],6,6,7-3[8:1],3-8[8:1],4,4,
5-1[8:1],1-4[8:1],8,7,6>3[8:1],3b>8[8:1],,,
{16}4h[4:1],,,,6v7-1[4:1],5,6,5,6,,,,B2/B3,,B5/B6,,4-2[8:1],,4-6[8:1],,4s8[8:1],,,,,,,,7,,7,,
65,,,45,,,34,,2b,,2b,,4,5,6,7,28,,28,,37,,37,,4,6,4,6,5h[4:1],,,,
8,7,6,5,4/8b,3,2,1,4b/8,7,6,5,8b/4,3,2,1,4b/8,7,6,5,1b/4,2,3,4,7b<4[8:1]/5b,,7b/5b,,1b,,,,
1,2,3,4,5/1b,6,7,8,5b/1,2,3,4,1b/5,6,7,8,5b/1,2,3,4,1b/5b,,4b/8b,,3b>1[8:1]/7b<5[8:1],,,,3b/7b,,,,
4bh[8:3]/8bh[8:3],,,,,,,,1b/5b,,1b/5b,,2b/6b,3,4,5,6/2b,7,8,1,6b/2,3,4,5,6/1b,8,7,6,5/1b,2,3,4,
7b,6,5,4,7b/3,2,1,8,7<4[8:1]/3b,,,,2b,,2b,,1b,4,2,5,3,6,4,7,B3/E3,B7/E8,E5,E6,A1/E2,A7/E7,D5,D4,
{4}2b-6[4:10],,,,,,,,,,,,
{16}4b/7b,,4b/7b<4[8:1],,,,7b/3b,,3,2,1,8,3b/7b,,3b/7b>2[8:1],,,,7b/4b,,4,5,6,7,
4b/8b,,8b<5[8:1]/4b,,,,4b/8b,,4,3,2,1,{12}8b,8,8,4b,4,4,
{16}7b,3,7,3,7,3,7,3,7,3,7,3,
7,3,7,3,7,3,7,3,7,3,7,3,
7,3,7,3,7,3,7,3,7,3,7,3,
7,3,7,3,7,3,7,3,7-1-4b[4:5],3-5-8[16:19],7,3,
{1},,,,
E
