&title=KNOT
&artist=DOLLCHESTRA
&first=0
&des=白川彩羽
&clock_count=4
&lv_5=13+
&inote_1=(174)
{4},,,,,,,,E1/C,,E7/C,,E3/C,,E5/C,,Ch[8:4]/E7/B7/B6/B2/B3/E3,,
{8},,8,1,7,,2,,6,,3,,5<3[8:4],,,,,,,,6h[8:2]/2,,C,,4h[8:2]/7,,C,,5h[8:2]/8,,C,,3h[8:2]/7,,C,,1h[1:1]/5h[8:14],,,,,,,,,2,3,4,6,7,8,,
{16}1,,2/8,,3/7,,1,1,1,,4/6,,3/7,,,,,,2pp6[8:4],,2,,2,,6-1[32:3],,6,,6,,,,
{8}2/8,3,1/6,5,1/3,2,6/8,7,2/5,1,7/4,8,2/8,7/3,4/6,7/8,6,1/2,3,1/8,6,1/8,3,4/6,3/7,2/8,1,1,1w5[8:1],,1,,7/8,8/1,2/1,3/4,4/5,5/6,2/1,3/2,4/3,6/5,7/6,8/7,1/5,2/6,7/3,,6h[8:2],,5h[8:2],,2h[8:2],,8h[8:1],3b,,,,,6/1,,6,8>4[8:1],6,,6,,6,3,6/3,,6,4-1[8:1],6,,6,,6,8,6/8,,6,1,6/1,,6,3,6-2[8:1]/3,,6,,3,,3,1,3,,3/8v5[8:1],,3/8,,3/1v6[8:1],,3/1,,3/7v4[8:1],,3/7,,3,,3h[8:1],4h[8:1],5h[8:1],6h[8:1],7h[8:5],,5,4,,3b,,,
{8}7/8,7/8,,1/2,1/2,,4,4h[8:8],,2,3,5,6,7,8-4[8:1],,8,,,2p3[8:1],2,2,,1<4[8:7],1,,4,4,,3,2,1,8,,1-5[8:1],6,,8-4[8:1],3,,1,1h[8:5],,4,5,6,7,,8/4,,,7-5[8:1],8-4[8:1],7,8,1-5[8:1],2-4[8:1],1,2,E7/B6/B7,E7/B6/B7,,,,
{12}2,8,3,7,4,6,5>1[8:2],,7,,6,,5,,,1/5,,,8>3[8:2],,6,,7,,8,,,
{8}1/5,,1-7[8:1]*-6[8:1],,1,,1-3[8:1]*-4[8:1],,1,,6v1[8:1]/2v5[8:1],,6/2,,3/7,,3/7,,
{12}5/C,,4/C,,7/C,,2/C,,,C,,,8/B8,,1/B1,,6/B6,,3/B3,,,C,,,
{24}7,6,7,6,7,6,7,,,,,,2,3,2,3,2,3,2,,,,,,5h[16:7]/4,,4,,4,,4,,4,,4,,,,,
{8}4/5,3/6,2/7,1-5[8:1]/8-6[8:1],,1/8,,1-3[8:1]/8-4[8:1],,1/8,,6v1[8:1]/2v5[8:1],,6/2,,4w8[8:1],,4-6[8:1],,4-2[8:1],,4-7[8:1],,4-1[8:1],,4pp8[8:3]*qq8[8:3],,4,,,,,,8,1,7,2,
{12}8,1,7,2,
{24},
{16}8,,2,1,2,1,3<6[4:1],,,,
{8}6<1[4:1],,1>4[4:1],,4<7[4:1],,7>2[4:1],,2>5[8:3],2-5[4:1],,,,
{24}E7/B6/B7,,,,,,C,,,,,,B2/B3/E3,,,,,,
{24}5,,,1-6[8:1],,,5,,,1-4[8:1],,,,,,1,,,,,,5w1[8:1],,,,,,5,,,
{8},7v6[8:1]/2v3[8:1],,2>4[8:1]/7<5[8:1],,2v1[8:1]/7v8[8:1],,2/7,,4-8[8:1]/5-1[8:1],,4/5,,2/6,,2/6qq6[8:2]*pp6[8:2],2/6,,,,,1-5<4[8:4]/5,,1h[8:4],,,,,,4-8<1[8:4]/8,,4h[8:4],,,,,,1,,8,2,,,7qq4[8:5],,7,,3-8[8:1],3,,,,,6h[8:3],,2,2,,,,,2h[8:2],,4h[8:2],6h[8:2],,,3h[8:3],,7h[8:1],,3/7,,
{24}3/7,4/8,1/5,2qq7>6[8:27]/6qq3<2[8:27],,,,,,2b/6b,,,
{8},,,,,,,,,,,,,,,,,,,,,,,,,,,,5/6,7,4/3,2,5/6,8,3/4,1,1/8,8/7,1/8,1/2,1/3,2/8,1/7,,2h[8:2],,3h[8:2],,6h[8:2],,8h[8:2],5h[8:1],,,,,
{24}7bx/4bx,6/3,5/2,4/1,,,1bx/4bx,5/2,6/3,7/4,,,8b/4b,7/3,6/2,5/1,4/8,
&inote_5=(174)
{4},,,,,,,,E1/C,,E7/C,,E3/C,,E5/C,,Ch[8:4]/E7/B7/B6/B2/B3/E3,,
{8},,8,1,7,,2,,6,,3,,5<3[8:4],,,,,,,,6h[8:2]/2,,C,,4h[8:2]/7,,C,,5h[8:2]/8,,C,,3h[8:2]/7,,C,,1h[1:1]/5h[8:14],,,,,,,,,2,3,4,6,7,8,,
{16}1,,2/8,,3/7,,1,1,1,,4/6,,3/7,,,,,,2pp6[8:4],,2,,2,,6-1[32:3],,6,,6,,,,
{8}2/8,3,1/6,5,1/3,2,6/8,7,2/5,1,7/4,8,2/8,7/3,4/6,7/8,6,1/2,3,1/8,6,1/8,3,4/6,3/7,2/8,1,1,1w5[8:1],,1,,7/8,8/1,2/1,3/4,4/5,5/6,2/1,3/2,4/3,6/5,7/6,8/7,1/5,2/6,7/3,,6h[8:2],,5h[8:2],,2h[8:2],,8h[8:1],3b,,,,,6/1,,6,8>4[8:1],6,,6,,6,3,6/3,,6,4-1[8:1],6,,6,,6,8,6/8,,6,1,6/1,,6,3,6-2[8:1]/3,,6,,3,,3,1,3,,3/8v5[8:1],,3/8,,3/1v6[8:1],,3/1,,3/7v4[8:1],,3/7,,3,,3h[8:1],4h[8:1],5h[8:1],6h[8:1],7h[8:5],,5,4,,3b,,,
{8}7/8,7/8,,1/2,1/2,,4,4h[8:8],,2,3,5,6,7,8-4[8:1],,8,,,2p3[8:1],2,2,,1<4[8:7],1,,4,4,,3,2,1,8,,1-5[8:1],6,,8-4[8:1],3,,1,1h[8:5],,4,5,6,7,,8/4,,,7-5[8:1],8-4[8:1],7,8,1-5[8:1],2-4[8:1],1,2,E7/B6/B7,E7/B6/B7,,,,
{12}2,8,3,7,4,6,5>1[8:2],,7,,6,,5,,,1/5,,,8>3[8:2],,6,,7,,8,,,
{8}1/5,,1-7[8:1]*-6[8:1],,1,,1-3[8:1]*-4[8:1],,1,,6v1[8:1]/2v5[8:1],,6/2,,3/7,,3/7,,
{12}5/C,,4/C,,7/C,,2/C,,,C,,,8/B8,,1/B1,,6/B6,,3/B3,,,C,,,
{24}7,6,7,6,7,6,7,,,,,,2,3,2,3,2,3,2,,,,,,5h[12:5]/4,,4,,4,,4,,4,,4,,,,,
{8}4/5,3/6,2/7,1-5[8:1]/8-6[8:1],,1/8,,1-3[8:1]/8-4[8:1],,1/8,,6v1[8:1]/2v5[8:1],,6/2,,4w8[8:1],,4-6[8:1],,4-2[8:1],,4-7[8:1],,4-1[8:1],,4pp8[8:3]*qq8[8:3],,4,,,,,,8,1,7,2,
{12}8,1,7,2,
{24},
{16}8,,2,1,2,1,3<6[4:1],,,,
{8}6<1[4:1],,1>4[4:1],,4<7[4:1],,7>2[4:1],,2>5[8:3],2-5[4:1],,,,
{24}E7/B6/B7,,,,,,C,,,,,,B2/B3/E3,,,,,,
{24}5,,,1-6[8:1],,,5,,,1-4[8:1],,,,,,1,,,,,,5w1[8:1],,,,,,5,,,
{8},7v6[8:1]/2v3[8:1],,2>4[8:1]/7<5[8:1],,2v1[8:1]/7v8[8:1],,2/7,,4-8[8:1]/5-1[8:1],,4/5,,2/6,,2/6qq6[8:2]*pp6[8:2],2/6,,,,,1-5<4[8:4]/5,,1h[8:4],,,,,,4-8<1[8:4]/8,,4h[8:4],,,,,,1,,8,2,,,7qq4[8:5],,7,,3-8[8:1],3,,,,,6h[8:3],,2,2,,,,,2h[8:2],,4h[8:2],6h[8:2],,,3h[8:3],,7h[8:1],,3/7,,
{24}3/7,4/8,1/5,2qq7>6b[8:27]/6qq3<2[8:27],,,,,,2b/6b,,,
{8},,,,,,,,,,,,,,,,,,,,,,,,,,,,5/6,7,4/3,2,5/6,8,3/4,1,1/8,8/7,1/8,1/2,1/3,2/8,1/7,,2h[8:2],,3h[8:2],,6h[8:2],,8h[8:2],5bh[8:1],,,,,
{24}7bx/4bx,6/3,5/2,4/1,,,1bx/4bx,5/2,6/3,7/4,,,8b/4b,7/3,6/2,5/1,4/8,
