&title=逃离无皮村
&artist=Sa1T
&first=0.333
&des=
&des_7=Sa1T
&lv_7=13?
&inote_7=(131.1){4},,,,{1}3>1v4[16:9],
6<8v5[16:9],
3>1v4[16:9],
6<8v5[16:9],
{4}3>1[4:1],1v4[16:5],,,6<8[4:1],
8v5[16:5],,,3>1[4:1],
1v4[16:5],,,6<8v5[32:9],
3>1v4[32:9],,,6<8v5[32:9],
6/3>1v4[32:9],3,6<8v5[32:9],
6/3>1v4[32:9],3,6<8v5[32:9],6/3>1v4[32:9],
3,6<8v5[32:9],6/3>1v4[32:9],3,
6<8v5[32:9],6/3>1v4[32:9],{2}3,
{4}3>1v4[32:9],3/6<8v5[32:9],6,3>1v4[32:9],
3/6<8v5[32:9],6,3>1v4[32:9],3/6<8v5[32:9],
6,3>1v4[32:9],3/6<8v5[32:9],6,
{8}3>1v4>1v4[2:1],3,,,,,,,6<8v5<8v5[2:1],
6,,,3>1v4>1v4[2:1],3,,,6<8v5<8v5[2:1],
6,,,,,,,3>1v4>1v4[2:1],
3,,,6<8v5<8v5[2:1],6,,,3>1v4>1v4[2:1],
3,,,,,,,5<8v5<8v5[2:1],
4>1v4>1v4[8:5],,,,,,,5<8v5<8v5[2:1],
5,,,,,,,4>1v4>1v4[2:1],
5<8v5<8v5[8:5],,,,,,,4>1v4>1v4[2:1],
4,,,,,,,{1}5<8v5<8v5<8v5<8v5<8v5[4:5]*<8v5[4:1]*<8v5<8v5b[2:1]*<8v5<8v5<8v5[4:3]*<8v5<8v5<8v5<8v5b[1:1],
,4>1v4>1v4>1v4>1v4>1v4[4:5]*>1v4[4:1]*>1v4>1v4b[2:1]*>1v4>1v4>1v4[4:3]*>1v4>1v4>1v4>1v4b[1:1],
{8},,,,,,,,5<8v5<8v5<8v5<8v5<8v5[4:5]*<8v5[4:1]*<8v5<8v5b[2:1]*<8v5<8v5<8v5[4:3]*<8v5<8v5<8v5<8v5b[1:1],
4>1v4>1v4>1v4>1v4>1v4[4:5]*>1v4[4:1]*>1v4>1v4b[2:1]*>1v4>1v4>1v4[4:3]*>1v4>1v4>1v4>1v4b[1:1],,,,,,,,,,,,,,,4>1v4>1v4>1v4>1v4>1v4[4:5]*>1v4[4:1]*>1v4>1v4b[2:1]*>1v4>1v4>1v4[4:3]*>1v4>1v4>1v4>1v4b[1:1],
5<8v5<8v5<8v5<8v5<8v5[4:5]*<8v5[4:1]*<8v5<8v5b[2:1]*<8v5<8v5<8v5[4:3]*<8v5<8v5<8v5<8v5b[1:1],,,,,,,,,,,,,,,5<8v5<8v5<8v5<8v5<8v5[4:5]*<8v5[4:1]*<8v5<8v5b[2:1]*<8v5<8v5<8v5[4:3]*<8v5<8v5<8v5<8v5b[1:1]*<8v5<8v5<8v5<8v5<8v5<8v5b[2:3],
4>1v4>1v4>1v4>1v4>1v4[4:5]*>1v4[4:1]*>1v4>1v4b[2:1]*>1v4>1v4>1v4[4:3]*>1v4>1v4>1v4>1v4b[1:1],,,,,,,,,,,,,,,4>1v4>1v4>1v4>1v4>1v4[4:5]*>1v4[4:1]*>1v4>1v4b[2:1]*>1v4>1v4>1v4[4:3]*>1v4>1v4>1v4>1v4b[1:1]*>1v4>1v4>1v4>1v4>1v4>1v4b[2:3],
5<8v5<8v5<8v5<8v5<8v5[4:5]*<8v5[4:1]*<8v5<8v5b[2:1]*<8v5<8v5<8v5[4:3]*<8v5<8v5<8v5<8v5b[1:1],,,,,,,,,,,,,,,{1}5<8v5<8v5<8v5<8v5<8v5[4:5]*<8v5[4:1]*<8v5<8v5b[2:1]*<8v5<8v5<8v5[4:3]*<8v5<8v5<8v5<8v5b[1:1]*<8v5<8v5<8v5<8v5<8v5<8v5b[2:3]*<8v5<8v5<8v5<8v5<8v5<8v5<8v5[4:7],
{8},,,,,,,,4,
4>1v4>1v4>1v4>1v4>1v4>1v4>1v4>1v4>1v4>1v4>1v4>1v4>1v4>1v4>1v4>1v4>1v4>1v4>1v4>1v4>1v4>1v4>1v4>1v4>1v4>1v4>1v4>1v4>1v4>1v4>1v4>1v4>1v4>1v4>1v4>1v4>1v4>1v4[2:19],,,,,,,,,,,,,,,{1}5<8v5<8v5<8v5<8v5<8v5<8v5<8v5<8v5<8v5<8v5<8v5<8v5<8v5<8v5<8v5<8v5<8v5<8v5<8v5<8v5<8v5<8v5<8v5<8v5<8v5<8v5<8v5<8v5<8v5<8v5<8v5b[4:31],
E
