&title=Eden's Song
&artist=はな
&first=0.79
&des=Kondou
&lv_5=13
&inote_5=(162)
{8}
4h[8:3],,5,5h[8:3],,3,3,,
7h[8:3],,5,5h[8:3],,6,6,,
3h[8:3],,4,4h[8:3],,2,2,,
5,5,1,1h[8:3],,8,8,,
6h[8:3],,5,5h[8:3],,7,7,,
2h[8:3],,4,4h[8:3],,3,3,,
5h[8:3],,4,4,6,6,5,7h[8:3],
,8,8,,17,,6/2-6[8:1],,
2b/6<4[8:6],,5,,5,,5,,
5q1[8:2],,3,,2q6[8:2],,8,,
7pp4[8:6],,5,,4,,3,,
2p6[8:2],,6,,4q8[8:2],,8,,
2-4[8:1],,6-8[8:1],,1-5[8:1],,5,,
7^5[8:1],,3^1[8:1],,8-4[8:1],,4,,
2v5[8:1]/6,,7-4[8:1]/2,,1-5[8:1]*-4[8:1]/7,,1,,
8b/7b,6,54,6,8b/2b,3,54,3,
8b<2[7:2]/1b,,,{16}3,2,{8}1-6[8:1]*-4[8:1],,1,,
7/3-5[8:1],,6,6,7/8^3[8:1],,4,,
6/5-3[8:1],,7,7,8/1-5[8:1],,4^7[8:1],,
4^1[8:1],,4-7[8:1],,4-1[8:1],,4-8[8:1],,
3b>5[16:4],,5/3,,4>6[16:4],,4/6,,
5>7[16:4],,7/5,,6-2[16:2],,6/4-7[8:1]*-1[8:1],,
4b,,5w1[8:1],,5b,,4-6[8:1]/3-7[8:1],,
4b-1[8:1]/3b,,4b/8b-3[8:1]*-5[8:1],,8b,,{16}2,6,4,5,
{8}1b,,,8,8h[8:2],,2,2h[8:2],,
4,4h[8:2],,,,3,4,
2h[8:2],,1,3^6[8:2],,6qq3[8:4],,8h[8:4],
,,,,,7,7,,
5/4^1[8:2],,1q7[8:2],8h[8:3],,,,8-4[8:2],
,,2,,2,4,3,,
4/5^8[8:2],,8p2[8:2],1h[8:3],,,,1-5[8:2],
,7,7,7,6,5,4,3,
1b/2b-6[8:1],,7,7,8>3[8:1],,4,4-1[8:1],
,5,5-8[8:1],,,,2,3,
4^1[8:1],,8,7-3[8:1],,3>5[8:2],,1h[8:2],
,,8^3[8:1],,5^8[8:1],,4z8[6:1],,
4b,,6,7/5V31[6:1],,,7-3[8:1],,
3,,1,2/8V64[6:1],,,2v5[8:1],,
2/5-8[8:1],,7v4[8:1],,7/4-1[8:1],,3,3,
8b-5[8:1]*-3[8:1],,,,62,62,73,73,
8b/4b,,1/2,1/2h[8:2],,4,4,35,
,6,5,4,73,6,5,84,
2b>7[8:5],,,8,8h[8:3],,,,
1-5[8:1],,,,73,{16}4,5,4,5,4,5,
{8}
3b,,7,68,,2,13,,
5/4>8[8:2],,8<4[8:2],,4>8[8:2],,8,,
6b-2[8:1],,6/8-4[8:1],,7b-3[8:1]/8,,7/1-5[8:1],,
8b^5[8:1]*^3[8:1],,8w4[8:1],,8b,,{16}1,5,3,7,
{8}1b>6[8:2],,6p1[8:1]/1,8h[8:2],,,7-4[8:1],,
7/4V61[16:3],,1,3V52[16:3],,1,6^8[8:1],,
5q1[8:1],,4v2[8:1],,3w7[8:1],,,,
5<8[8:1]/1>4[8:1],,1p5[8:1]/5p1[8:1],,1^4[8:1]/5^8[8:1],,,,
2bV48[8:2]/6b,,5,7-4[8:1],,7/1-5[8:1],,5V31[6:1]/1,
,6,6,7-3[8:1],,3,1-6[8:1]*-4[8:1],,
1,,82,7-3[8:1]/3-1[8:1],,7V51[8:2]/3,,4h[8:2],
,,8^6[8:1]/2-6[8:1],,8-4[8:1]/2^4[8:1],,8/2,,8bV63[8:2]/2,,3<8[4:1]/8,1h[8:2],,,2^5[8:1],,
2/5p7[6:1],,8,6^1[8:1],,2,3qq1[8:1],,
4q8[8:1],,5^8[8:1],,6w2[8:1],,,,
4^2[8:1]/8^6[8:1],,8-5[8:1]/4-1[8:1],,8-4[8:1]/4-8[8:1],,,,
7bV58[8:2]/3b,,4,2-5[8:1],,2/1-5[8:1],,4V26[4:1]/1,
,6,7,8-4[8:1],,4,5-8[8:1]*-2[8:1],,
5,,37,6^4[8:1]/4^2[8:1],,4q6[8:2]/6,,1h[8:2],
,,7b-3[8:1]/3,8,1b-5[8:1]/7,2,8bw4[8:1]/1,,
8b,,73,1bV37[8:2]/5b,,1/4,6b,,
{16}8,7,1,8,2,1,3,3,
{8}4qq5[8:3],,8b,,,6,7,8p4[8:1],
1,2,3b>5[8:8]*qq5[8:8],,,,,,
,,,,,,,,
,,,,,,,,
,,,,,,,,
