&title=ハート111
&artist=ゆーり
&first=0.131
&des=yozakura
&lv_5=13
&des_5=yozakura
&inote_5=
(129){4},E7,E7,E7,
E7,5/4,3,5/4,
{8}6,Ch[8:1],,,5h[4:1]/4h[4:1],,,5,
6,7,{4}8,{8}5h[4:1]/4h[4:1],,,4,
3,2,{4}1,{8}5/3,2-4-2[0.2326##0.4605],5,8,
,,{4}4qq2[4:1]/5v7v8[0.2326##0.6977],,,{2}Cfh[4:1],
5/7h[4:1],
{8}B4/B3,4/2,{4}3,{2}2/6pp3V14-1[0.2326##0.6977],
{4},2/4pp4qq4[2:1],{2}2/4,
{4}A4f,{8}4,3,4,5,4,3,
{4}4/C/B8/B1/B2/B3/B4/B5/B6/B7,5pp8[4:1]/4>1[4:1],{2}4/5,
{8}5<8<5[4:1],4,3,2,{4}1,5w1[0.2326##0.2326],
,4qq1[4:1]/5<8[4:1],{2}5/4,
{8}4>1>4[4:1],5,6,7,{4}8,{8}4/8h[16:3],3b,
4/7h[4:1],3b,{4}3b,E2/E3/6qq6pp6[4:1],E2/E3,
E2/E3,3pp3qq3[4:1],{2}5-8-5[8:1],
{4}1w5[8:1]/8w4[8:1],1/8,6/5v2[4:1],5/4v7[4:1],
{8}4,,,E7/D7,E7/D7,D6/E6,E7/D7,B6f,
E5f,B3f,{16},D7/A6/D6/A5/D5/C/D3/A3/A4/D4/B7/B2/B6/B5/E5/E4/B3/B4/E6/A7/A2/B8/E8/D8/E2/D2/E7,,,B4,B3,B3,E3,B2,E2,B1,B8,
E8,B7,E7,B6,{8}1/8,7,8/1,2,{4}1/8V25[4:1],
{2}8v6[0##0.4605],{4}5qq5pp5qq5pp5[2:1],A5,
{2}A5,{8}8/1,8,1/2,2-5[0.2326##0.2326]/1s5[0.2326##0.2326],
,,{4}4h[8:1]/5h[8:1],{8}4/5v2[0.2326##0.2326],5v7[0.2326##0.2326],5v2[0.2326##0.2326],5-8[0.2326##0.2326],
{2}5-1[0.2326##0.2326],{16}3h[16:3]/6h[8:1],,,6,{4}3h[4:1]/6h[4:1],
{8},4/5,5/4,4/5,8/7<4<7>3>7[2:1],7,{4}8,
{8},,,A7/E7,E6/A5,B6,E7/A7,Cfh[2:1],
,,,,,,{4}8<8[0.9256##0.4605],
4>4[4:1],4>4[0.4605##1.3907]/8<8[0.4605##1.3907],{8},,,,,,,C,
{4}1>1[0.9256##0.4605],5<5[4:1],
5<5[4:3]/1>1[4:3],,,D3/D7,
{8}A5/A1,Ch[8:1],,8V64V68[0.2326##0.4605],{2}4V28V24[0.2326##0.4605],
{8}1V75V71[0.2326##0.4605]/8V24V28[0.2326##0.4605],8b-5-2-7-4-1-6-3-8[4:3],,,,,,,,,{4}C,
{2}8b<8<8<8>8[1:1],
{8},,,,,,,1bx/8bx,
1bx/8bx,8bx/1bx,1x-4[0.2326##0.2326],1h[8:1]/8h[8:1],,8x-5[0.2326##0.2326],{4}1h[8:1]/8h[8:1],
{8}1x-4[0.2326##0.2326]/8x-5[0.2326##0.2326],1h[8:1]/8xh[8:1],,1x/8x,{4}1h[8:1]/8h[8:1],8bx/1bx,
,C,{8}5/4<1<4[4:1],B3/B4,B2/B3,B2/B3,
B1/B2,8qq4[0.2326##0.4605],8/1pp4[0.2326##0.2326],1,,2h[8:1]/7h[8:1],,3h[8:1]/6h[8:1],
{48},,,,,,,,,,,,1x,8x,7x,6x,{6}5x,6h[8:1]/5h[8:1],{12}4,4h[8:1]/5h[8:1],,3,
{6}6h[8:1]/5h[8:1],{12}3,1/5-8[0.1721##0.1163],{96},{32}A5,E6,B6,{96},,,,,,,,,,{24}4pp4[0.386##0.4605]/7pp7[0.386##0.4605],,,,,{4}4qq4[4:1]/7qq7[4:1],
{32},,,,,,,,,,,,8x,7,{16}6,{32}4x,3,{16}2,{32}8x,7,{16}6,{32}4x,3,{16}2,{32}8x,7,{16}6,
{32}4x,3,{16}2,,,{4}1x<1[4:1],{96},,,,,,,,,B6,,E7,,B7,,B1,,B2/E3,,,,,,,,,,,,,,,{6}2x,
{8}6b/5b,2s6[0.2326##0.2326],{4}3,2h[8:1]/6h[8:1],{8}6/2,4h[8:1]/8h[8:1],
,4/8,2/1v4[0.2326##0.2326],1v7[0.2326##0.2326],1v4[0.2326##0.2326],1-6[0.2326##0.2326],{4}1-5[0.2326##0.2326],
{8},6h[8:1]/2h[8:1],,2/6,{4}8h[8:1]/4h[8:1],8/4,
{32}1x,2,{16}3,{32}5x,6,{16}7,{32}1x,2,{16}3,{32}5x,6,{16}7,{32}1x,2,{16}3,{32}5x,6,{16}7,{8}1s5[0.2326##0.2326],2,
,Ch[12:1],,,2/3,4/5,6/7,3h[8:1]/2h[8:1],
,4/5,3/4,5/6,{4}4h[8:1]/5h[8:1],{8}7/6,4/5,
3/2,8h[8:1]/7h[8:1],,6/5,4/3,2/1,{4}5h[8:1]/6h[8:1],
{8}4/3,3/2,1/8,7/6,{4}2h[8:1]/3h[8:1],{8}1/8,6b/2b,
,6b/2b,,,8/6h[4:1],,,B8/B1,
B8/B7,1/3,{4}2,{2}3/7qq2V41-4[0.2326##0.6977],
{4},3/1qq1pp1[2:1],{2}3/1,
{4}A1f,{16}1,2,{8}1,{16}8,7,{8}8,{16}1,2,{8}1,
,,{4}8qq5[4:1]/1>4[4:1],1/8,A5/A4,
{8}8<5<8[4:1],1,2,3/A5,{4}4,8w4[0.2326##0.2326],
A5/D5/A4/D4/A3/B5/B4/B3/C,1pp4[4:1]/8<5[4:1],8/1,A5/A4,
{8}1>4>1[4:1],8,7,6/A4,5,Cf,Cf,Cf,
E
