&title=L'épilogue
&artist=SOUND HOLIC
&first=0
&des=aketora0728 vs.VIGVANGS的尾椎骨
&lv_6=14+
&inote_6=(145),,,,
1>4[8:3],,8-3[8:3],,6-2[8:3],5-1[8:3],,,3<6[8:3],,8-4[8:3],,
{16}8b,,,7b,,,6h[8:3],,{24}5,4,3,2,1,8,{8}7b,,
{16}8/5-2[8:1],,,7,,,6,,1-4[8:1]/4,,6,,8,8,,
1-6[8:1]/3,,,,2,,,1,,3/4<7[8:1],,2,,3,3,,
2-5[8:1]/8,,,,1,,,2,,4>1[8:1],,8,,6,6,,
5-2[8:1]/7,,,,8,,,1,,4/3h[8:3],,{16}1,8,7,6b,5,4,
{16}1/4-7[8:1],,,2,,,3,,8-5[8:1]/5,,3,,1,1,,
8-3[8:1]/6,,,,7,,,8,,6/5>2[8:1],,7,,6,6,7,8,
12,,,,67,,,,34,24,,15,,6/8h[16:9],,7,7,,6,,5,,4,,15,26,37,4/8,{24}5,6,7,8,1,2,
{8}3/4<7[8:1],,1,2,38,1/3-8[8:1],,7<4[8:1],,3>8[8:1],,7-4[8:1],,2,,
1,2-5[8:1],,24,8<5[8:1],8>3[8:1],8,,4-7[8:1],,7-2[8:1],,2-6[8:2],,,,,
1-6[8:1],,12,3-7[8:1],4-8[8:1],5,,2-6[8:1],,6-1[8:1],,1-5[8:1],,3-7[8:1],,,
8,7,6,5,34,12,78,56,{16}4,3,4,4,6,5,7,7,1,3,2,4,8,6,7,5,
1b-4[8:1],,,,14,,7,7,5,6,4,7,3,,28,,{4}1-4[8:1]/2-4[8:1],1-7[8:1]/2-6[8:1],1-5[8:1]/2-4[8:1],12,
{16}8-5[8:1]/1,,,,85,,2,2,4,3,5,2,6,,71,,{4}8-5[8:1]/7-5[8:1],8-2[8:1]/7-3[8:1],8-4[8:1]/7-5[8:1],87,
{8}1-5[8:1]/2,38,12,{16}4,4,8,3,7,4,{8}5/6-8[8:1]*-1[8:1],74,{4}6-4[8:1]*-3[8:1],6V82[8:1]*<2[8:1],6V42[8:1]*>2[8:1],6,
{8}8-4[8:1]/7,61,87,{16}5,5,3,6,2,7,{8}8/1-3[8:1]*-4[8:1],37,{4}1-7[8:1]*-6[8:1],1V35[8:1]*>5[8:1],1V75[8:1]*<5[8:1],1,
{16}2,2,3,4,4,,7,7,6,5,5,,34,,16,,8,7,8,7,16,,4,3,4,3,25,,37,,15,,
6,8,7,3,5,,2,8,1,6,4,,7,8,1,2,3>8[8:1],,,8<5[8:1],,,5-2[8:1],,,,8,,8b,,,,
7,6,45,3,2,,1,2,34,5,6,,87,,81,,2,3,54,6,7,,8,7,65,4,3,,12,,78,,
1,1,7,7,3,3,5,5,8,8,8,8,8,8,8,8,{4}4-8[8:4],3h[8:4],,,
{16}1-5[8:1]/2,3,5,,17,,8,8,6,7,4,7,5,8,3,8,
1-6[8:1]/2,8,6,,14,,2,2,8,3,5,3,7,1,4,1,
7/8-4[8:1],6,4,,28,,1,1,5,8,7,2,6,1,8,3,
5/6-2[8:1],7,1,,64,,3,3,5,4,7,1,6,4,8,2,
7/1>4[8:1],26,3/5<8[8:1],,17,,5,,1h[8:1],,6,6,2,3,46,7,
2/8<5[8:1],73,6/4>1[8:1],,82,,4,,8h[8:1],,3,3,7,6,52,3,
84,5,7,3,1,4,7,2,81,7,6,5,1,1,2,2,34,5,34,2,34,6,34,8,
{32}34,5,6,7,8,1,2,3,{8}4b/8b,,
{16}1h[8:1]/2<7[8:1],4,5,,28,,4,4,2,1,3,4,1,8,5,6,
8<5[8:1]/7h[8:1],1,2,,18,,3,3,1,2,7,8,6,5,4,3,
1h[8:1]/8>3[8:1],6,5,,78,,5,5,7,6,1,8,3,2,5,4,
38,,17,,45,45,,2/8h[16:3],,7,6,5,41,38,27,16,
5-8[8:1]/8,6,37,,51,,2,2,43,5,61,2,35,6,72,3,
8-4[8:1]/4,37,26,,18,,2,2,7,6,51,2,38,7,62,3,
48,8,{24}6,5,4,{16}1,1,{24}3,4,5,
8,7,6,4,3,2,7,6,5,3,2,1,7,6,5,8,7,6,1,8,7,2,1,8,
6,5,6,5,6,7,
{32}3,4,3,4,3,4,3,2,
{4}1b>8[32:31],,,,1>8[32:31],,,,
1>8[32:31],,,,1>8[2:1],,,
{8}1b,3b,
5V73[8:1],,6V83[8:3],,7V13[8:1],,,,
4V26[8:1],,3V16[8:3],,2V86[8:1],,,,
5V38[4:1],,8V63[4:1],,3V16[4:1],,6V41[4:1],,
4,3,2,1,
{16}
1,2,3,4,
{32}
4,3,2,1,8,7,6b,,
{16}
5,5,4/6,5,1,,3,3,2/4,3,7,,
4b/8b,,2b/6,,
4,4,5/3,4,8,,6,6,5/7,6,2,,
5/1,,7/3,,8-4[16:1],7/1,2/6,,8,,
1-5[16:1],2/8,3/7,4/6,1b,,4/8,,2/5,,
8/7,,,7/6,,,6/5h[4:1],,,,4h[4:1],,7b,,,,
5/6,5/7,5/8,5/1,5/2,,6/7,6/8,6/1,6/2,6/3,,1/8,,5b/8,,
2/3,2/4,2/5,2/6,2/7,,3/4,3/5,3/6,3/7,3/8,3/1,3/2b,,2b/6,,
5,5,7,8,4,4,2,1,3,6,5,8,7,2,1,4,
3-7[8:3],,,,8h[8:3],,,,,,,,
{24}8/7,1/8,2/1,2,3,4,
{16}1-4[8:1]/5b,,3/4V25[8:1],,6,,8,7,,7/6,,4/7,,1/2,,,
3-7[8:1],,8/7V16[8:1],,1,,2,2h[8:1],,4,,7/5,,2/3,,,
8-4[8:1],,6/4V61[8:1],,2,,3,3,,,3/2,,2/1,,1/8,1>4[16:7]/8<5[16:7],
,,,,,,,,,,,,3h[8:1]/6h[8:1],,,,
7h[4:1]/8,,6,,4,,5,6/7-4[8:1],,7/8,,6,6,,5,,
3h[4:1]/4,,2,,8,,1,2/3-8[8:1],,3/4,,2,2,,1,,
2/8,,6/4,,8/6,4/2,,5/3,,1/7,,8/4,2/6,,5/8,,
4/7,,2/1,,3/4,4/6,,8/7,,7/6,,8/7,1/2,3/4,5/6,1b/8,7<4[4:4]*-4[16:1],
,,,,,,,,,,,,,,,,,,,
E
