&title=Break The Speakers
&artist=DJ Myosuke
&first=-2.3
&des=T-tc
&lv_6=14+
&des_6=T-tc
&inote_6=
(185){4},{1},,{4},,,{32}8b/1b,
2/7-1v6[32:15],6/3,4/5,,,,,{8}4,4,,4,3,2,
,2/5,{16}3,4,{8}3,7h[8:1],{16}5,6h[8:1],,4,{8}5,
{4}6b/3>7v2[8:3],{8}6,6,,5,6,7,
3b/5,2,2<7[4:1]*>5[4:1],4/6b,,,,,7/1,
{16}4,5,{8}4,3/5,2/4,{16}1,8,{8}1,7/5,
6/4,{16}5,3,{8}5,2/4,3/5,{16}4,4,{8}6,7/5,
8/6,8/6,4/2,4/2,6/4,6/4,2/8,2/8,
{12}1,3,2,8,6,7,{24}1,2,3,4,5,6,{12}8,3,6,
{4}5bh[16:13],{32},,,,,,,,,,,,,,,,E8,B7,{16}B6f,{32},,,,1bx,
B1f,,,,,,,8bx/5bx,B7f,,,,,,,6bx/1bx,A2,{16}A3f,,,{8}1bx/8bx-3[8:1]*-5[8:1],8x,
{4}8x-4<6[4:1],8/1V35[8:1],1<6[8:1],4h[8:1]/1-4[8:1],
7h[8:1]/1-6[8:1],5h[8:1]/1>5[8:1],1/7h[8:1],{8}7h[8:1],{16}5,6,
{4}5-7[8:1],5/2-6[8:1],2/8,{16}8w4[16:3],4,8,4,
{4}8b,{8}C,{16}E8,B2,B3,B4,{8}B8/E1/B1,{4}Ch[4:1],
5h[8:1],5h[8:1]/4h[8:1],4h[8:1]/3h[8:1],5h[8:1]/4h[8:1],
7h[8:1]/1h[8:1],3h[8:1]/5h[8:1],5h[8:1]/7h[8:1],{16}6,8,6,8,
{4}7<3[4:1],3>7[4:1],7V52[4:1],{8}2,3,
{4}4h[8:1],1h[8:1]/5h[8:1],7-2[8:1]/3-6[8:1],3b/7b,
Cf/B8/E8/B7/B1/E2/B2/B3/B4/B5/B6/E4/E6,{8}8bxV64[8:1],4v7[8:1],{4}8,{8}1<6[8:1],2,
{4}1/3-7[8:1],3/5,{8}5/1,8/4,{16}1/5,2/6,7/3,4/8,
{4}5-2[8:1]/1-6[8:1],1V73[16:3]/5-3-7[16:3],{8},,,,1h[4:1],
Cf,,7h[4:1],{4}Cf,Cf/B7/B8/4x>1[8:1],
4bv7[8:1]/5b-7[8:1],5b/4b-2[8:1]*v1[8:1],4b,{8}5b-2[8:1]/4b>1[8:1],3b/6b,
{4}4b-8[8:1]/5b-7[8:1],5b/4b,{8}6b/2b,2/6,8b/4b,{16}4/8,3/7,
{4}6b-1[8:1]/2b-5[8:1],2/6,{8}4/8,4/8,{32}8b/4h,7,6,5,4b/8h,3,2,1,
{4}4h/8-5[8:1],1/8-3[8:1],{2}8<5[8:1]/1-6[8:1],
{4}B3/B4,B7/E7,B1/E2/B2,{12}2-5[8:1]/7-4[8:1],1/8,1/8,
{4}2/7,1/8,{32}1/5,2,3,4,5/B1,B2,B3,B4,B5/A1,A2,A3,A4,A5,A6,,,{4}8h[4:1],
7s3[8:3],{8},,,,7/4,
6,{16}2/5,3,{8}4/7,4/8-4[8:1],5/1,{4}8b/Cf/B2/B1,
{8}1-3[8:1],4,{16}5/1-7[8:1],6,{8}7,5/1-3[8:1],4,5/1<6[8:1],6,
{16}4/1,3,{8}2v5[16:3],5,2,{16}6,7,8,1v4[0.4054##0.1622],{24}3,4,5,6,7,8,
{4}1<6[8:1],{8}1-3[8:1],3,1/5-3[8:1],6,{4}5/8w4[8:1],
8-5-8[8:1]*-3-8[8:1],{8},,,,1h[8:1],7,
{16}8b,8b,8b,8b,{4}8b-2[8:1],{8}4/8<6[8:1],5,8-2[8:1],5,
4/8-6[8:1],4,{4}3/8>2[8:1],{16}3/8<6[8:1],4,{8}5,5/8-2[8:1],5,
4/8-6[8:1],4,{4}3/8>2[8:1],{16}3/8-4[8:1],4,{8}5,5/8,1,
8b,{16}1,4,{8}2b,{16}8,5,{8}7b,{16}1,5,{8}3b,7b/5b,
{32}1b/8b,B1/B8,Cf,B6/B5/B4/B3,{1},,,{4},,{16},,4,
5,4,5,
{8}3h[8:1],1,2h[8:1],{16}5,3,{8}6V48[4:1],4,{4}6,
{8}3,{16}6,4,{8}6,{16}3,5,{8}3-8[8:1],6,{4}3,
{8}6h[8:1],8,7h[8:1],{16}4,6,{8}3v1[4:1],5,3,{16}7,7h[16:1],
,,{8}3h[8:1],5,6h[16:1],4,7,{4}5<4[4:3],
{16}8,,,5,,,{8}6,{16},7,,,{8}8,1,
,3,{16}5,5,{8}2h[8:1],{16}4,,,3h[16:3],,,{8}1<3[2:1],
{16}2,,,3,,,{8}1,{16},8,,,{4}1h[8:1],
{8}8,7,{16}3,3,{8}5h[8:1],{16}2,,,3,,,{8}8/5qq1[8:5],
{4}7,6h[8:1],5h[8:1],4pp8[4:3],
3,2h[8:1],1h[8:1],1,
8p2[4:1],2q8[4:1],8-3-7[8:3],1-5[8:1],
{1}Cf,
{8}2/4,1h[16:1],8,3,6,4h[16:1],5,2,
4,6h[16:1],5,7,4,2h[16:1],1,3,
{16}6,,,5h[16:1],{4}2h[8:1],4h[8:1]/7h[16:1],{8}7qq4[8:5]/1pp4[8:5],8,
{1}7/1,
{16}1,8,4,5,2,7,1,8,1-5[8:1],7,3,8,{4}1b,
{16}8,1,5,4,7,2,8,1,8-4[8:1],2,6,1,{4}8b,
{32}1,2,3,4,5,6,7,8,1,2,3,4,5,6,7,8,1/5,6,7,8,1,2,3,4,5/1,6/2,7/3,8/4,5/1,2,3,4,
{12}5,1,1,6,6,6,{24}3,4,3,4,{12}3,5-1[8:1],2,2,
{2}5b,6/3,
8h[4:1]/7b-4[8:1],1h[4:1]/2v8[8:1],
{4}7bx-4[8:1]*v2[8:1],7,1bx-5[8:1]*q6[8:1],1,
2bh[4:1],{8}3,6,4-8[8:1],8,{4}Cf/B4/B8,
{16}7-4[8:1],,,1,{8}7,3,{16}2,4,{8}3,1,{16}4,8h[16:1],
,,{8}4,{16}7/3q7[8:1],2/6,{8}5/1,{16}8bq4[0.2432##0.1622],,,8b,,,{8}6b-3[16:1],
{16}3-7[8:1],,,2,,,{8}1p5[8:1],{16}8,2,,,2,1,8,7,
{8}4<7[8:1],{16}8,1,{8}2,{32}D8,A8,D1,A1,{16}2xh[16:3]/4xh/D2,,,4-2-7[8:1],,,4/7,6,
5-8[0.2432##0.1622],,,5,{8}4,2,{16}4,3,,5,{8}5,2h[8:1]/4h[8:1],
,1/5,{16}5/1v6[8:1],2/6,{8}7/3,{16}1b>4[0.2432##0.1622],,,1b,,,{8}8b,
{16}1-6[8:1],,,2,{8}1,3,2,4,{16}5p1[8:1]/1p5[8:1],2/6,3/7,8/4,
{4}1>4[8:1]/5<8[8:1],5-1[8:1]/1-5[8:1],,Cf/B8/B7/B6/B5/B4/B3/B2/B1,
{8}7bx/4bx,{16}5,6,{8}7/4,{16}2,4,3,5,{8}4,7h[8:1],8,
3/7,2/6,{16}6/2<7[8:1],3/7,{8}8/4,{16}2b-5[0.2432##0.1622],,,2bp6[0.2432##0.1622],,,{8}2b,
{16}1b-4[0.24##0.1622],,,5b-8[0.24##0.1622],,,{8}7b-2[0.24##0.1622],{16},3b-6[0.24##0.1622],,,{8}8,8,
4,4,{16}6,5,{8}6,{16}7h[8:1]/4h[8:1],,,5h[8:1]/2h[8:1],,,{8}1/8,
{16}8,7,6,5,4/8,7,6,5,4,3,2,1,{4}E7f,
{16}1,2,3,4,5/1,2,3,4,5,6,7,8,{4}E3f,
{16}7,8,6,1,4,3,5,2,6,4,8,1,7,3>6[16:9],{8}5<2[2:1],
,,,,,,,,{4}6h[8:1]/4>7[4:5],
6h[8:1],5h[8:1],5h[8:1],
4h[8:1],4h[8:1],4h[8:1],3b/6b,
4h[8:1]/5-8v3V16[4:5],4h[8:1],5h[8:1],5h[8:1],
4h[8:1],4h[8:1],3h[8:1],3b/5b,
{8}7h[16:1]/6h[16:1],7h[16:1]/6h[16:1],5h[16:1]/4h[16:1],5h[16:1]/4h[16:1],2h[16:1]/3-1[8:1],3h[16:1]/2h[16:1],,,3h[16:1]/2h[16:1],
3h[16:1]/2h[16:1],1h[16:1]/8h[16:1],1h[16:1]/8h[16:1],6h[16:1]/7-4[8:1],7h[16:1]/6h[16:1],{24},,,,,,2,
3,4,1,{48},{16}2,1,2,1,2,{24}1,8,7,2,{48},{16}1,{24}2,3,4,1,8,7,
{32}A6,A5,A4,A3,A2,A1,A8,{128}A7,,,A6,{32}D6,D5,D4,D3,D2,D1,D8,D7,D6,D5,D4,D3,D2,D1,D8,D7,{4}Cfh[4:1],
{32}8bx>3[8:1],E8,{16}B7,{32},,,,8b<5[32:3]/4b-8[32:3],D1f,,,,,,,4b/8b,B4f,,,,,,,{8}1b-5[32:3]/5-1b[32:3],3b/7,
{4}5b/1,{8}4h[16:1]/2bh[16:1],8bh[16:1]/1h[16:1],5bh[16:1]/7h[16:1],2bh[16:1]/4h[16:1],5b/1,{16}2/6,3/7,
{4}8b/4bv1[8:1]*-7[8:1],4b,{16}5bx/1x,2/6,3/7,4/8,5/1,2,3,4,
{4}5-3[8:1]/1-7[8:1],1v6[8:1]/5v2[8:1],5/1,{24}4b/8,5x/1x,{6}2x/6x,
{24}5b/1b,4/8,3/7,2/6,,,4b/8b,3/7,2/6,1/5,,,3b/7b,2/6,1/5,8/4,,,{8}7b/8b,D5/A5/D6/A6f/D7,
2b/1b,D5/A4/D4/A3f/D3,8b,1b,1b/2b,3b/8b,7b/4b,{32}B8/B4,B3/B7,B2/B6,B5/B1,
{4}Cf,D2f/D6f/A6/A5/A1/A2,{8}8/4,2/6,{24}1b/5w1b[8:1],2/6,3b/7b,4/8,{12}1b/5,
{24},,,,,,{8}5x-1-5<8b[8:3],{32}8x,B8f,C,B4,,,,,,,,,,,,,,,,,{1}Cf,
E
