&title=【多罗罗】Yestalgia for Futurity
&artist=MYUKKE.
&first=0.1
&des=1
&lv_5=14
&inote_5=(112.5)
{4},,
{16}2/6h[8:7],,,,{32}B3,B4,{16},,,3,,,,{32}B2,C,{16},1,,
{16}2/7h[8:7],,,,{32}B3,B4,{16},,,3,,,,{32}B2,C,{16},1,1,
{16}2/8h[8:7],,,,{32}B3,B4,{16},,,3,,,,{32}B2,C,{48},{24},7,6,5,
{16}4-7[8:1]/1,,8,,41,2,,38,5x<8[8:1]/6x,,4,,Ch[4:1]f,,,,
{16}1w5[8:1],,,,1,,,2,5,3,6,4,7,,28,,
{16}1w5[8:1],,,,1,,,2,5,3,6,4,7,1,8,8,
{16}1w5[8:1],,3,8,1,,,2,5,3,6,4,7,,2-5[8:1]/8,,
{16}46,,2/8-4[8:1],,7,,28,2,1-5[8:1],,35,,17,,6,,
{16}8xbh[4:1]/Cf,,,6,7,5h[8:1],,6,4,5h[8:1],,3,4,2h[8:1],,3,
{16}4xb/2xb,,7,8,5,4,8,1,4,3,5,4,3,5,4h[8:1],,
{16}1xb,,2,1,8,7/3h[8:1],,6,4,5h[8:1],,3,5,4h[8:1],,6,
{16}5xb/7xb,,1,8h[4:1],{32}A6,E6,B5,B4,E4,,{16}3x,,4,4,,26,,,,
{16}1xbh[4:1]/Cf,,,3,2,4h[8:1],,3,5,4h[8:1],,6,5,7h[8:1],,5,
{16}6xb/4xb,,2,1,4,5,1,8,5,6,4,5,6,4,5,6,
{16}3bh[16:3]x,7,7,7,8,1h[8:1],,8x,2,7h[8:1],,5,6,4h[8:1],,5,
{16}6xb/4xb,,{24}1,2,3,{16}4-8[8:1]/6,,5,,4/6-1[8:1]*-3[8:1],,7,,6,,,,
{16}8h[8:1],6,4,2,8h[8:1],5,3h[8:1],7,6V42[8:1],,35,,6h[8:1],,,,
{16}1h[8:1],3,5,7,1h[8:1],4,6h[8:1],2,3V57[8:1],,46,,3h[8:1],,,,
{16}8,8h[16:3],3,5,7,1h[8:1],4,6,3-8[12:1]/7-5[12:1],,26,,37,,,,
{16}1,1,8,8,2,2h[8:1],,3,4-8[12:1],5,3,5,4,,,,
{16}1b/7b,,3,3,8,8h[8:1],,5,6V42[8:1],4,2V86[8:1],8,6,,,,
{16}1,2,3,2,3,4,3,4,5,4,5,6,5-1[16:1],,3,,
{16}45,,2,2,8,8h[8:1],,1,7V53[8:1],5,3V17[8:1],1,7,,,,
{16}4,6,8,2,5,7,1,3,6/B7,,2/B4,,7/B5,,3/B1,,
{16}Ch[2:1],,,,,,,,,,,,26,,,,
{16}1/7h[8:1],,,,{32}6h[8:1]/B3,B4,{16},,,57,,6,,{32}6h[8:1]/B2,C,{16},4,5,
{16}17,,2,,{32}3h[8:1]/B6,B5,{16},,,31,,2,,{32}3h[8:1]/B7,C,{16},{24}4,5,6,
{16}1-5[12:1]/7,,8x,,1/7-4[12:1],7,,2,27,,3x,,1/5x<3[8:3],,,,
{16}Cf,,,,,,4xh[4:1],,,,5,,6x>8[8:3],,C,,
{16}3x,,,,,,4xh[4:1],,,,5h[4:1],,2x,,C,,
{16}6,6,4,4,8,8,1,1,{32}6x,7x,8x,1x,4x,3x,2x,1x,{48}5x,A6,D7,A7,D8,A8,D1,A1,D2,A2,D3,A3,
{16}Ch[2:1],,,,,,,,B7/B8/E8,,B3/B4/E4,,1q5[12:1]/8,,27,,
{16}1b/8bx-4[12:1],6,6,5,8,2,,2b,1v3[8:1],7b,1,,14,,5,,
{16}7-1[16:1]/1,,{32}6,5,{16}6,7-4[12:1],,3,,1-5[12:1]/7,,3,3,15,,{16}6,,
{16}8bx-4[12:1],3,5,3,8,2,,3b,2v3[8:1],5b,2,,2/6-4[16:1],,7,,
{16}6/3qq4[4:1],,{32}2x,4,{16}2,35,,8x,,6pp7[8:1],,7x,,64,,2,,
{16}7bxqq5[8:1],,5<2[4:1],,B3/B4/E4,,,,4,,3h[4:1],,1x-5[12:1],,5,,
{16}1xb/8xb,7,6,4,{32}8,1,{16}8,4,5,2h[8:1],,,27,6,5,4,3,
{16}2xb/6bx-2[12:1],3,5qq7[4:1],2,6,,,,,,6bx,,7/4>1[12:1],,5,,
{16}4x/6x,,{32}7,8,{16}7,26,,{32}4,5,{16}4,2x>4[16:1]/7x<5[16:1],,{32}1,8,{16}1,2bx/7bx,,Cf,,
{16}8bx-4[12:1],6,4,2v8[8:1],8,3,3,2,6qq5[8:1],,1xh[8:1],,6,3,3bx,6x,
{16}7bx-4[12:1],1,5,3-8[12:1],7,1,5,3,7V51[8:1],6,4,3,2/7x[8:1],,3bx,,
{16}3bxv8[12:1],2,5,6-4[16:1],3,7,1,6,3v6[12:1],2,8,7,3,,8bx,,
{16}1bx,5,7,7,8,4,2,2,1bxh[16:1],8h[16:1],7h[16:1],6h[16:1],2xh[16:1],3,45,,
{16}7bx-5[16:1]/2x,,4,3-8[12:1],7,2,6,3,6pp7[8:1],7,4,3,6,,4bx,4x,
{16}6bx>4[16:1],,2,3-8[16:1],6,2,8,3,4-8[12:1],1,2,6,4,,7bxqq6[8:1],,
{16}2bx<5[8:1],,7,,2,,,8,2V47[8:1],,6,,2bx,8,8,3,
{16}5,4x/6h[8:1],,1,2x/8h[8:1],,4,5,3x>1[16:1]/6x<8[16:1],,4x/5x,,3bx/6bx,,,,
{48}E3f/E7f,B3/B6,B4/B5,{16}E5,,,,,,,45,,,,B8/B1/E1,,,,
{16}1/2>5[8:1],,,,B3/E4/B4,,,,6<1[8:1]/7,,,,B7/E8/B8,,,2,
{16}2/4q1[8:1],,,,B2/B3/C,,,,3/8<5[8:1],,,,B6/B7/E7,,{24}4,3,2,
{16}1-5[12:1]/7,,2,,17,7,,4,5<8[12:1]/3,,4x>1[12:1],,5x,,4x,,
{16}5xh[128:1],5h[128:1],5h[128:1],5h[128:1],4h[8:1],,,7,4,6,3,5,2,,71,,
{16}5h[128:1],5h[128:1],5h[128:1],5h[128:1],5/4h[8:1],,,7,4,6,3,5,2,8,1,1,
{16}5h[128:1],5h[128:1],5h[128:1],5h[128:1],4h[128:1],4h[128:1],4h[128:1],7,4,6,3,5,{32}1x,2,3,4,7x-4[12:1],6,5x/4x,3,
{16}2,,17,,6,47,,28,34,,85,,{48}8bx,17,26,35,4x,,{16},
