&title=ホシトハナ
&artist=讃州中学勇者部「結城友奈は勇者である」
&first=0
&des=reflectW
&lv_1=2
&lv_2=4
&lv_3=6
&lv_4=7
&lv_5=10+
&lv_6=12
&inote_6=(158){1},
{16},1,2,3,4/5-8[8:1],,,,,,4-1[8:1],,,,,,
{4}5pp6[8:3]*qq4[8:3],,,35,
{4},1qq6[16:33]/2^5[2:1],,,
{4},5qq2[1:1],,,{1},
{8}5h[4:14]/3b>6[8:12],,,,,,,,
{4},,,,
{1}7bs3[8:10],,
{8}4h[4:14]/6b<3[8:12]
,,,,,,,,
{4},,,,
{1}2bV48[8:10],,
{8}6-4[8:1],,,3h[8:3],,,5h[4:1],,
{8}2-4[8:1],,,5h[8:3],,,3h[4:1],,
{8}6-4[8:1],,,3h[8:3],,,6h[4:1],,
{8}3V17[8:2],,,6,,,18,,
{8}2-5[8:1]*-5[8:1],,,7h[8:3],,,4h[4:1],,
{8}8-5[8:1]*-5[8:1],,,3h[8:3],,,6h[4:1],,
{8}2-5[8:1]*-5[8:1],,,7h[8:3],,,3h[4:1],,
{8}6V82[8:2]*V82[8:2],,,3,,,27,,
{8}56,56,,34,34,,1pp4[8:6]/8,27,
{8},,,6,,,6,,
{8}24,2/4,,17,17,,5qq1[8:6]/6,4/7,
{8},,,7,,,7,,
{8}7/8,78,,45,45,,1pp6[4:3]/2,38,
{8},,,4,,,4,,
{8}75,7/5,,82,82,,4pp2[8:6]/3,5/2,
{8},,,1,,,1,,
{8}56,47,,34,25,,1^4[16:4]/8,6pp5[8:5]/3,
{8},,,5,,,4,,
{8}15,26,,84,73,,1^6[16:4]/2,4qq5[8:5]/7,
{8},,,5,,,6,,
{4}7/2-5[8:1],2/6-1[8:1],6/3-8[8:1],3/7-4[8:1],
{8}7/1-5[8:1],1,6-1[8:1],6,2-5[8:1],2,8,7,
{16}3,4,3,4,2,5,2,5,1,6,{24}1-5[8:1],2,3,46,7,8,1b,,,
{16},,,,,,1>4[16:5],,1,,,4<1[16:6],,,6q2[16:3],,
(162)
{16}6,,,,,,3<6[16:5],,3,,,6<3[16:6],,,8qq6[16:3],,
{16}8,,,,,,4,,5h[16:3],,,3h[16:3],,,7,,
{16}3<8[16:6],,,,,,8>5[16:6],,,,,,5q1[16:3]*p1[16:3],,,,
{16},,,,,,8<5[16:5],,8,,,5>8[16:6],,,3p7[16:3],,
{16}3,,,,,,6>3[16:5],,6,,,3>6[16:6],,,1pp3[16:3],,
{16}1,,,,,,5,,4h[16:3],,,6h[16:3],,,2,,
{16}6b-2[16:2],,,,,,3b-8[16:2],,,,,,5bpp8[8:4]*qq2[8:4],,,,
,,,,,,,,,,,,5^8[4:1]/3,,,,
8>3[4:1],,,,3q5[2:1],,4,,,,5,,5<3[2:1],,,,
,,,,3q5[2:1],,,,4,,,,5<8[4:1],,,,
8^3[4:1],,,,3<1[2:1],,3,,,,1,,1p4[8:3]*q6[8:3],,,,
,,,,,,,,3pp8[2:1],,,,35,,,,
7b,,,,6pp5[8:4],,6,,,,5,,5qq5[8:3],,,,
,,,,,,,,45,,3h[16:4]/6h[16:4],,,,,,
2b/5b,,3,4,3,,7b/4b,,6,5,6,,2b/5b,,3,4,2,,7b/4b,,6,5,7,,2,4,3,7,5,6,1,3,
2,8,6,7,4,5,3,6,2>1[8:6],7,1,8,2h[16:18],,,,
,,,,,,,,,,,,,,,,
{16},,,,,8,7,6,5/4-1[8:1],,,,,,5-8[8:1],,,,,,
{16}4-1[8:1],,,,,,5bpp7[8:14]*qq3[8:14],,,,,,,,,,,,,,,,,,,,,,,,,,,,,,,,,,,,
&inote_7=
