&title=ロストアンブレラ(yuigot Remix)
&artist=稲葉曇
&first=0
&des=阿抹AIMO
&wholebpm=140
&first_4=
&first_5=0
&lv_5=12+
&inote_4=
&inote_5=(140)
{1},
{2}1/7h[4:1],5/3h[4:1],
{1}2<4[2:1]/8h[4:3],
{4}1/7h[4:1],2,5/3h[4:1],6,
{4}73,48,1-5[8:1],,
{2}3-6[8:1]/7q3[8:1],8-4[8:1]/4-8[8:1],
{2}2V84[2:1]/7V51[2:1],
{16},,,,,,2,3,,,1,1,3h[8:1],,{8}8,17,68,5/7<5[8:1]*p4[8:5],,
{2}7,8b,
{2}8/2h[4:1],4/6h[4:1],
{1}7s3[2:1]/1h[4:3],
{4}8/2h[4:1],,4/6h[4:1],,
{4}3/7-3[8:2],,8-5[8:1],8b,
{8}16,27,3/8h[16:7],,{16}3-6[12:1],,,3,,,{8},
{8}83,72,6/1h[16:4],,{16}6-8[12:1],,,61,,,{8},
{8}16,27,3/8h[16:7],,{16}3<6[12:1],,,3,,,{8},
{8}83,72,6/1h[16:4],,{16}6<3[4:1],,,61,,,,,
{8},1,1,1-5[8:1],,7,6,7,2-5[8:1],3,7-4[8:1],6,3,2,3,,
{8},8,8,8-4[8:1],1,2,3,2,7-4[8:1],8,2-5[8:1],1,6,8,6,,
{8},1,2,3-8[8:1],4,5,6,7,8-3[8:1],1,7-4[8:1],6,2,1,2,3,
{8}6<1[8:1],,3,4,3>8[8:1],,6,5,6<1[8:1],,2<7[8:1],3,4,3,2-5[8:1],,
{4}2bV84[4:5],7,7,7,7,6,5-7[8:1],5-2[8:1],5V73[4:5],1,1,1,1,1,2,3,
{4}4-8[8:1],46,5-1[8:1],53,2-6[8:1],21,7-3[8:1],7V52[2:3]/8,8h[16:7],,8V63[8:6],,
{1},
{4}5h[1:1]/7,,3,,
{2}1V36[8:4]*V74[8:4],{4},{8},
{16}5-1[8:1],3,5b,,1,2,3,,8-4[8:1],2,8,,3,2,1,,
1,8,2h[8:1],,8,1,8,,7,8,6h[8:1],,8,1,2h[8:1],,
1,8,7b-4[8:1],,,1,7-3[8:1],,8,,8-4[8:1],1,2,,8,,1,2,
3-8[8:1],,7-4[8:1],,3,,7,,1h[64:1],,6,,3,,48,48,,,
26,37,4qq8[8:3]/8h[8:1],,2,,84,,6,,
{4}7-3[8:1],7V15[8:5]*V51[8:5]/8,
{2},{4},
{8}1b/7b,1,2,3,31,3,2,1,2-6[8:1]/8,1,2/8-4[8:1],1,2>8[8:2]/8,1,28,,,
{8}8/2,8,7,68,6,7,8,7-3[8:1]/1,8,7/1-5[8:1],8,7<4[8:1]/1,8>3[8:1],7,8,,
{8}1/7,6,2/8h[4:1],,2,8,7,7-5[8:1]/1,6,7/1-3[8:1],2,7-2[8:1]/1-6[8:1],8,1v4[8:1]/7v4[8:1],,7-2[8:1]/1-6[8:1],,1-4[8:1]/7-4[8:1],,1V38[4:1]/7V58[4:1],,17,,,
{16}1,1,8,,{8}1,17,58,3-6[8:1]/6<4[4:12],,6/3>5[4:11],,,,
{1},
{1},
{1},
{4}8>8[1:4],,1<1[2:7]*<1[2:7],,
{1},
{1},
{1},
{2},2V84[1:1]/8V62[1:1],
{1},
{2}3-1[8:1]/7-1[8:1],2V84[1:1]/6V84[1:1],
{1},
{2}8-4[8:3],8V26[1:1]*V62[1:1],
{1},
{2}1-5[8:3],1V74[1:1]*V36[1:1],
{1},
{4}2h[4:1]/7h[4:1],,
{1}4h[8:6]/5b,
{1}8h[8:6]/1b,
{8}83,72,6h[8:1]/1h[16:4],,{16}8-5[12:1],,,81,,,{8},
{8}35,46,2h[8:1]/5h[16:2],,{16}2-5[12:1]/5-8[12:1],,,25,,,{8},
{8}16,27,3h[8:1]/8h[16:4],,{16}1-4[12:1],,,18,,,{8},
{8}64,53,7h[8:1]/4h[16:2],,{16}7-4[12:1]/4-1[12:1],,,74,,,{8},
{16}2-8[8:1],4,3,,2,,7,6,8-4[8:1],1,2h[8:1],,8,,6,5,7h[8:1],,4,5,
{8}4-1[8:1],2,4/5-1[8:1],6,45,{16}3,3,,,2,4,
{8}3h[8:1],6h[2:1],7,5,2,3,
{8}1b-3[8:1]/8b,,8/1-5[8:1],,{16}8-4[8:1]/1,7,6,,1/8-6[8:1],,1-5[8:1],2,3/8-4[8:1],,
{8}1-3[8:1],8,1,7-4[8:1],68,71,
{16}1<5[4:1],2,3,,4,3,2,1,8-4[4:1],,26,,4,3,2,1,8,7,6h[8:1],,
{16}1,8,7h[8:1],,2,3,4h[8:1],,1,2,3h[8:1],,
8,1,2b-5[8:1],,,1,2-6[8:1],,1,,1-5[8:1],8,7,,1,,8,7,
6-1[8:1],,2-5[8:1],,6,,2,,8h[64:1],,3,,6,,81,81,,,
72,63,5pp1[8:3]/4h[8:1],,7,,15,,3,,
{4}5h[1:1],1h[4:3],,
{2},
{8}1b/5b,48,3q6[8:3]/7,4,{16}83,,8h[4:1],,,,{8},
{8}48,37,2V84[8:3]/6,3,{16}25,,5h[8:3],,,,{8},
{8}3,46,5pp1[8:3]/2,36,{16}52,,2h[4:1],,,,{8},
{8}64,53,4qq8[8:3]/7,63,{16}47,,7h[8:1],,,,{8},
{8}15,48,15,15,37,15,26,3/7-4[8:1],,7/3-1[8:1],2,3,6,35,24,,
{8}56,28,34,57,2h[8:1]/8h[8:1],{16},28,,,{8}17,28,{16}28,37,46,,
{8}35,15,48,46,,
{8}1b/8b,12,18,87,18,28,18,17,18,13,18,68,1-4[8:1]/8-5[8:1],27,18,,,
{8}56,54,43,54,64,54,53,54,57,54,24,5-1[8:1]/4-8[8:1],27,54,,,
{8}78,34,21,68,34,28,47,18,24,58,12,4/6-8[8:1],15,3-1[8:1]/6,4,
{8}3/7-5[8:1],,2-8[8:1]/7-4[8:1],3,27,,35,35,35,{16}8-4[8:1],8,8,,8,,{8}3,2,
{8}1-3[8:1]/5-7[8:1],,15,
{2},E
