&title=叫 &artist=? &first=-0.53 &des=墓出来了 &lv_5=1 &des_5=墓出来了 &inote_5= (275){4},,,5w1[7.2##7.2]/4w8[7.2##7.2], 4w8[6.9818##7.2]/5w1[6.9818##7.2],4w8[6.7636##7.2]/5w1[6.7636##7.2],5$/4$,4$/5$, 5$/4$,5$/4$,5$/4$,5$/4$, 5$/4$,5$/4$,5$/4$,5$/4$, 5$/4$,5$/4$,5$/4$,5$/4$, 5$/4$,5$/4$,5$/4$,5$/4$, 5$/4$,5$/4$,5$/4$,5$/4$, {1}4$/5$, ,5b/4b, E