&title=Daisuke
&artist=横田商会
&first=0.25
&des=ホシノちゃん
&des_5=ホシノちゃん
&lv_5=14
&inote_5=(157)
{1},
{4}6-3[4:3],1,,1,2-7[4:3],5,,5,6-1[4:3],5,,4,3-8[4:3],8,,7,
{16}6,,5,,4h[8:1]/7h[4:1],,,5,6,4,5h[8:1],,E3/B3,,,,
{16}3,,4,,5h[8:1]/2h[4:1],,,4,3,5,4h[8:1],,E7/B6,,,,
{16}6,,5,,4h[8:1]/7h[4:1],,,5,6,4,5h[8:1],,E3/B3,,,,
{4}1>8[2:1],,,5b,
{16}2,7,4,5,3/6,,7,,3/8h[8:1],,2,,1h[8:1]/6,,7,,
{16}7,2,5,4,6/3,,2,,6/1h[8:1],,7,,8h[8:1]/3,,2,,
{16}1<6[8:1]/3,,2,2,1,,4,,8>3[8:1]/6,,7,7,8,,5,,
{16}8-5[8:1],1,7,1,8,,1-4[8:1],,2,8,1,,7,7,3,3,
{16}7,2,5,4,6/3,,2,,6/1h[8:1],,C,,8h[8:1]/3,,C,,
{16}2,7,4,5,3/6,,7,,3/8h[8:1],,C,,1h[8:1]/6,,C,,
{16}1<6[8:1]/3,,2,2,1,,4,,8>3[8:1]/6,,7,7,8,,5,,
{4}1-6b[8:1]/8-3b[8:1],1s5V71[8:3]/8z4V28[8:3],1/8,,
{8}5b/6b,4,5/6,7,6/3,2-7[8:1]/5,,2/4V61[4:1],,4/1p7[8:3],2,3,3,4h[8:9],,7xh[8:15],,,,,,,,,5b,,4b,,E8f,B1f,,,
{32}E2,E1,E8,E7,E6,E5,E4,E3,
{8}6xv1[8:1],2xv5[8:1],6,2<7[8:1],,2/4,,5/6,4/7,3/8-5[8:1],1/2,1-4[8:7]/8,,1,,,,,,,,,
{8}3b/B6/E7f/D7,,4b/B7/E8f/D8,,6b/E2f,6b/E3f,,,
{8}2-5[8:1]/5,,2/6,,1qq6[8:3]/2,,3,5-2-4[4:1],,5,6x,7,8h[8:1],,8-4-6[4:1],,8/4,2,8V27[4:1],,8/5,,6,6pp5[2:1],,3,2>4[8:1],1x,2,,2-5[8:1]/7-4[8:1],,2b/7b,,2-4[8:1]/7-5[8:1],,2/7,,
{32}2/5,3/6,4h[16:15]/7,,,,,,
{8}1,8,7-2[8:1],,7,,,1-6[8:1],,1/3,,8-3[8:1],,6/8,,7,
{16}3,4,5,6,7p2[8:1],8,1,2,3,,,,3x-8[8:1]/6-1[8:1],,,,
{64}E7/E3,B2/B7,B1/B8,E1f,,,,,,,,,,,,,
{8},,5,4/6,3h[8:1]/7h[8:1],,
{8}1v3[8:1]/8v6[8:1],,1b/8b,,2-5[8:1],5V38[4:1],2,7-3[8:1],,7,1xs5[4:1],,5p2[4:1],6,7,8,
{8}Ch[4:1],,
{32}E3,B3,B4,E5,,,,,
{16}6,5,6,,4/7,,
{32}1x/6x,D2/D6,A2/A5,D3/D5,,,,,2x/E6,B5,B4,E4,,,,,2-5[8:1],3,4,5,6v1b[8:1],7,8,1,2,,,,6,,,,,,,,
{32}2b-8[8:1]/7b-1[8:1],E3/E7,B3/B6,B4/B5,E5,,,,2b/7b/E1f,,,,,,,,
{8}7-4[8:1],4V61[4:1],7,2-6[8:1],,2-7[8:1],,2/5h[8:1],,
{8}6/8-5[8:5],7/1,2/8,,,,,,3/1-4[8:5],2/8,7/1,,,,,,4/6,3/5,2-4[8:1]/4,,2/C,,5/8-6[8:1],,8/C,,6x>3[8:1],,6/3v6[8:3],,,,,,,
{128}A3/A7/Cf,E4,E8,B4,B8,B5,B1,E6,E2,2xh[128:87]/6xh[128:87],,,,,,,,,,,,,,,,,,,,,,,,,,,,,,,,,,,,,,,,,,,,,,,,,,,,,,,,,,,,,,,,,,,,,,,,,,,,,,,,,,,,,,,,,,,,,,,,,,,,,,,,,,,,,,,,,,,,,,,
{16}7,2,5,4,6/3,,2,,6/1h[8:1],,C,,8h[8:1]/3,,C,,
{16}2,7,4,5,3/6,,7,,3/8h[8:1],,C,,1h[8:1]/6,,C,,
{16}1<6[8:1]/3,,2,2,1,,4,,8>3[8:1]/6,,7,7,8,,5,,
{16}8-5[8:1],1,7,1,8,,1-4[8:1],,2,8,1,,7,7,3,3,
{16}7,2,5,4,6/3,,2,,1h,6,C,6,3h,8,C,,
{16}2,7,4,5,3/6,,7,,8h,3,C,3,6h,1,C,,
{16}1-6[8:1]/7,2,3,4,5/1,,3,,8-3[8:1]/2,7,6,5,4/8,,6,,
{16}8-5[8:1],1,7,1,8,,1-4[8:1],,2,8,1,,7V53v6V42[2:3],7,3,3,
{8},,,,,,,,,,,1h[4:1],,3h[8:1],2h[8:1],4h[8:1],
{8}2V46v3V57b[1:1],,,,,,,,,,,,3b/D8f/E8/B8,,6b/D2f/E2/B2,,
{8}7>2[4:1],6,5,4,3h[8:3],E3,B4,,5<2[4:1],2,3,4,5h[8:3],B1,E8,,
{8}6-8[8:1],5-3[8:1],6,5,1V35[8:1],,1/6,7-3[8:1],8,7/5,4,1w5[8:1],,1,,,
{32}4bx/5bx/D5f,3bx/6bx/D4/D6,2bx/7bx/D3/D7,1bxh[32:5]/8bxh[32:5],,,,,,,,,,,,,
{8}4,5/3,6h[8:1]/2h[8:1],,
{8}1v3[8:1]/8v6[8:1],,1b/8b,,2q6[8:1],6V42[4:1],2,7h[8:1],,8h[8:1],,1,2,3/8-5[8:5],4/7,5/8,,,,,,6/1-4[8:5],5/2,4/1,,,,,,4/6,3/5,2-4[8:1]/4,,2/C,,5/8-6[8:1],,8/C,,6x>3[8:1],,6/3v6[8:3],,,,,,,
{64}2b/6b,D7f/D3f,A3/A7,D4/D8,4xh[16:11]/8xh[16:11],,,,,,,,,,,,,,,,,,,,,,,,,,,,,,,,,,,,,,,,,,,,,,,,,,,,,,,,,,,,
{16}2,7,4,5,3/6,,7,,B1/E2,4,3,3,B8/E8,5,6,6,
{16}2,7,4,5,3/6,,2,,B8/E8,5,6,6,B1/E2,4,3,3,
{16}8V24[4:1],7,6,5,4v2[8:1],,6,,8,7,6,5,3,4,5,6,
{16}8-5[8:1],1,7,1,8,,1-4[8:1],,2,8,1,,7,7,3,3,
{16}7,2,5,4,6/3,,2,,B8/E8,5,6,6,B1/E2,4,3,3,
{16}7,2,5,4,6/3,,7,,B1/E2,4,3,3,B8/E8,5,6,6,
{16}1V75[4:1],2,3,4,5v7[8:1],,3,,1,2,3,4,6,5,4,3,
{16}1,1,8,8,3,3,6,6,2,7,4,5,3,6,3,6,
{64}E3f/E7f,B2/B7,B1/B8,E1,8xh[16:31]/1xh[16:31],
