&title=灰の羽搏
&artist=かめりあ
&first=-0.01
&des=灰羽エマ
&lv_5=14+
&inote_5=(240)
{16}
,,,,,,,,
,,,,,,,,
,,,,,,,,
{16}
3h[8:2],,5,,5,,6h[8:2],,
4,,4,,2h[8:2],,5,,
{16}
5,,6,,
{12}
2,4,3,
7,5,6,
{16}
1,8,2,7,
{16}
6x-8q2-4[8:26]/3hx[8:24],,,,,,,,
,,,,,,,,
{16}
,,,,,,,,
,,,,,,,,
{16}
,,,,,,,,
,,,,,,,,
{16}
,,,,,,,,
,,,,,,,,
{16}
6h[8:8],,,,,,,,
,,,,,,,,
{16}
5h[8:6],,,,,,
{24}
E4,E3,E2,
{24}
E1,E8,E7,E6/E5/B5,,,
{16}
,,,,
{16}
2hx[8:2]/Cf,,,,,,6hx[8:2]/E1f,,
,,,,3hx[8:2]/E5f,,,,
{16}
,,1xpp3[8:2]/7xqq5[8:2],,,,,,
,,,,,,,,
{16}
2h[8:6]/5,,,,,,,,
,,,,
{12}
4,3,4,
{16}
3h[8:3],,,,,,4-6[8:1],,
,,,,,,,,
{16}
6h[8:6]/4,,,,,,,,
,,,,
{12}
5,7,5,
{16}
7h[8:3],,,,,,8-4[8:2],,
,,,,,,,,
{16}
8p5[8:8],,,,4-1[8:4],,,,
,,,,,,,,
{16}
,,,,1h[128:95],,,,
,,5h[128:47],,,,,,
||
{16}
Cf/B6/B2/B4/B8/B7/E7/B3/E3/B1/E1/B5/E5,,,,,,,,
,,,,,,,,
{16}
Cf/D4/A3/D3/A2/B2/B7/A7/D7/A6/D6/E2/E8/D8/D2/E3/E7,,,,,,,,
,,,,,,,,
{16}
6/2,,6h[8:5]/2h[8:5],,,,,,
,,,,,,,,
{16}
8<5p3[8:6]/4h[8:8],,,,,,,,
,,,,,,,,
{16}
,,,,1xh[8:1]/3xh[8:1],,,,
7xh[8:1]/2xh[8:1],,,,1xh[8:1]/5xh[8:1],,,,
{16}
3hb[8:1],,5,,3h[8:1],,7,,
3h[8:1],,1,,3h[8:1],,7,,
{16}
2hb[8:1],,8,,2h[8:1],,6,,
2h[8:1],,4,,2h[8:1],,6,,
{16}
1b,,1,,7,,7,,
5,,5,,3b,,3,,
{16}
1b,2,3,4,5,6,7,8,
1,2,3,4,5,6,7,8,
||
1
{16}
1w5[8:3],,,,,,,,
,,,,,,,,
{16}
1b/7b,,6,5,6,,3-6[8:1],4,
3,,,,,,,,
{16}
5b/7b,,6,,5,,4/2-6[8:1],,
,,5-3[8:1],,,,8>3[16:2],,
{16}
,,5,,6,,7h[8:2],,
,,5h[8:2],,,,6,,
{16}
6/4,,3,,2,,2/5-7[8:1],,
,,3-5[8:1],,,,1<5[16:3],,
{16}
,,4,,3,,2,,
2h[16:2]/6h[16:2],,,7h[16:2]/3h[16:2],,,8/4,,
{16}
4,,5,,6,,6/3-7[8:1],,
,,6-4[8:1],,,,1>4[16:2],,
{16}
,,6,,7,,8h[8:2],,
,,4h[8:2],,,,6,,
{16}
6/4,,3,,2,,2/5<8[16:2],,
,,,,B1,B2,B3,B4,
{16}
A8,A7,A6,A5,A1,A2,A3,A4,
7x,6x,5x,1x,2x,3x,8x,7x,
{16}
6x/4x,,4x,,3x,,5x/3x-5[8:1],,
,,7-4[8:1],,,,2,,
{16}
,,3x/5x,,46,,5/7h[8:2],,
,,1h[8:2],,,,5,,
{16}
2/6,,3,,4,,5/7-1[8:1],,
,,2-4[8:1],,,,8,,
{16}
,,7x/5x,,64,,3,,
2bxh[8:1]/6h[8:1],,,3bxh[8:1]/7h[8:1],,,8/4bx,,
{16}
8xh[8:3],,5,,5,,4p8[16:3],,
,,6,,6,,6h[8:1],,
{16}
,1h[8:1]/5h[8:1],,,6q2b[8:2]/2q6b[8:2],,,,
,,,,,,,,
{16}
4/8,,7,,7,,6/2,,
3,,3,,6/4,,5,,
{16}
3/5,,4,,
{12}
7,5,6,
2,4,3,
{16}
8,1,7,2,
||
2
{16}
6x-3b[8:1],,,,6bx/3bx,,,,
2,,2,,4h[8:2],,,,
{16}
5,,5h[8:1],,7,,7h[8:1],,
8x-2[8:1],,8x-6[8:1],,,,,,
{16}
4xv3[8:1],,,,5,,,,
7,,7,,1h[8:2],,,,
{16}
8,,8h[8:1],,6,,6h[8:1],,
5x-3[8:1]*-7[8:1],,,,,,,,
{16}
2xv1[8:1],,,,7,,,,
6,,6,,8h[8:2],,,,
{16}
7,,7h[8:1],,6,,6h[8:1],,
5,,5,,3x,4x,,4x,
{16}
2xv4[8:1],,,,5,,,,
7,,7,,3h[8:2],,,,
{16}
7h[8:1],,,4h[8:1]/8h[8:1],,,5/1,,
5b/1b,,,,,,,,
||
3
{16}
1bp5<7q3>1[8:10]/7bh[8:14],,,,,,,,
,,,,,,,,
{16}
,,,,,,,,
,,,,,,,,
{32}
2x/7x,3x/6x,4xh[16:3]/5xh[16:3],,
,,,,
{16},,,,
E2/B1,,B5/E6,,D3/E3,,D7/E7,,
{16}
4bx,,E8/B8,,B2/E2,,B5/E6,,
3xh[8:2],,,,
4x,,,,
{16}
8bh[8:14]/2bp6^7^8^1q5^4^3^2b[8:10],,,,,,,,
,,,,,,,,
{16}
,,,,,,,,
,,,,,,,,
{32}
1x/8x,7x/2x,6x/3x,5xh[32:5]/4xh[32:5],
,,,,
{16},,,,
E3/B2,,B6/E7,,D4/E4,,D8/E8,,
{16}
5bx,,A8/B8,,B2/A2,,B6/A6,,
4xp8[16:3],,,,8p4[16:3],,,,
{16}
4b>6[8:15],,,,,,,,
,,,,,,,,
{16}
,,,,,,,,
,,,,,,,,
{16}
5h[8:4],,,,,,,,
4h[8:4],,,,,,,,
{16}
Ch[8:8],,,,,,,,
,,,,,,3,,
{16}
2h[8:2],,,,1,,2h[8:2]/8,,
,,8,,2h[8:2]/7,,,,
{16}
7,,6/2h[8:2],,,,6,,
2x/5x,6x,7x,8x,4x,3x,2x,1x,
{16}
7h[8:2],,,,1,,7h[8:2]/2,,
,,2,,7h[8:2]/3,,,,
{16}
3,,4/7h[8:2],,,,4,,
7x/4x,3x,2x,1x,7x,6x,5x,,
{16}
2,4,2,4,2,,6,5,
6,5,6,,3,4,3,4,
{16}
3,,7,5,7,5,7,,
1,8,1,8,1,8,
1,8z4[16:9],
{16}
1s5[8:4],,,,,,,,
,,,,,,,,
{16}
8/2,,3,4,3,,6,5,
7h,4h,7h,4h,7bh,,,,
||
4
{16}
1x,2x,3x,4x,5x/8x,,7-5[8:1],,
,,8-2-4[8:2],,,,4x-6v3[8:3],,
{16}
,,8,,8,,,,
1x,8,7,6,3x,2,1,8,
{16}
5h[8:1],,,1h[8:1]/6h[8:1],,,2/7,,
3h[8:1]/8h[8:1],,,7h[8:1]/2h[8:1],,,8/1,,
{16}
7x,6,5,4,8x,7,6,5,
8x/4x,73,62,51,8b/4b,,,,
{16}
5x,6x,7x,8x,1x/2x,,2-6[8:1],,
,,6-2[8:1],,,,7,,
{16}
8<3[16:5],,8p3[16:3],,,,,,
,,,,1x,2x,3x,4x,
{16}
6b,,6,5,7,,3b,,
3,4,2,,7b,,7,5,
{16}
8,,2b,,2<4[16:5],4,1,,
,,,,,,,,
{16}
8x,7x,6x,5x,4x/1x,,2>4[8:1],,
,,1<5[8:2],,,,5xV74[8:3],,
{16}
,,1,,1,,,,
8x,1,2,3,6x,7,8,1,
{16}
4h[8:1],,,8h[8:1]/3h[8:1],,,7/2,,
6h[8:1]/1h[8:1],,,3h[8:1]/7h[8:1],,,2/8,,
{16}
2x,3,4,5,8x,1,2,3,
4x/8x,51,62,73,8b/4b,,,,
{16}
7/3,,,6/4,,,5,4,
5,,3h[8:2],,,,5,3,
{16}
6h[16:1],,4h[8:1],,7h[8:1],,5h[8:1],,
8x,1,2,3,
{16}
4,5,63,72,
{16}
8bq5[16:7]/1p4b[16:7],,,,,,,,
,,,,,,,,
{16}
5/7b,,,2b/8,,,3b/5,,
,8b/Cf,,,,,,,
||
5
{16}
1,8,1,,7/2b-5[8:1],,,,
2/7-4[8:1],,,,7/3-8[8:1],,,,
{16}
3/5pp4[16:6],,,,1,,,,
2-8[8:1],,,,6-3[8:1],,,,
{16}
3-6[8:1],,,,1-4[8:1],,,,
1/8-5[8:1],,,,8/3>6b[16:5],,,,
{16}
E1f/B8/B1,,,,,,,,
,,,,8<5[8:1],,,,
{16}
8/5V74[8:2],,,,3,,3,,
,,2,,2-6[8:1],,,,
{16}
2/5pp4[8:3],,,,3,,3,,
,,2,,2,,,,
{16}
4b/7b,,6,5,6,,3b/7b,,
6,5,6,,2b/7b,,1,8,
{16}
1,,7b,6,5,4,3,2,
1pp8[8:3],8,7,6,5,,,,
{16}
7bh[8:4],,,,,,,,
1,5,1,5,1,5,1,5,
{16}
B4/B3f,,,,,,6bx-1-7-5[8:3]/Cf,,
,,,,,,,,
{16}
3bh[8:3],,,,,,,,
{12}2,4,3,
6,4,5,
{16}
B2/B1f,,,,,,7bxv4-6-8[8:3]/Cf,,
,,,,,,,,
{16}
1b>4[8:1],,,,1/7<4[8:1],,,,
7/2-6[8:1],,,,2/6,,,,
{16}
7b-4[8:1],,,,7/3-8[8:1],,,,
3/6-1[8:1],,,,3-5[8:1]/6-4[8:1],,,,
{16}
3x>6[8:4],,,,,,,,
6xV83[8:4],,,,,,,,
{16}
3xV15[8:3],,,,,,,,
6,,6,,7,,7,,
{16}
8b<5[8:1],,,,8/2>5[8:1],,,,
2/7-3[8:1],,,,7/3,,,,
{16}
2b-5[8:1],,,,2/6-1[8:1],,,,
6/3-8[8:1],,,,6-4[8:1]/3-5[8:1],,,,
{16}
6xpp3[8:4],,,,,,,,
3xV15[8:4],,,,,,,,
{16}
5xV73[8:3],,,,,,,,
1,,1,,2,,2,,
{16}
3bh[8:8]/4h[8:12],,,,,,,,
,,,,,,,,
{16}
,,,,,,,,
2x,1x,8x,7x,
{24}
3,2,1,8,7,6,
{16}
5b/4b,,,,6bx/8bx,,,3bx/5bx,
,,2bx/8bx,,,7bx/5bx,,,
{16}
3bx-1-7-5[8:12]/4bxq5[8:12],,,,,,,,
,,,,,,,,
{16}
,,,,,,,,
,,,,,,,,
{16}
45,,3,4,3,,5,4,
5,,2,4,2,,6,4,
{16}
6,,1,5,1,,,,
7b,8b,7b,8b,7b,,,,
||
6
{16}
8-5[8:1]/7-4[8:1],,,,8/7,,,,
3h[8:1],,4,2h[8:1],,4,1h[8:1],,
{16}
5h[8:1],,4,6h[8:1],,4,7h[8:1],,
3-6[8:1],,,,7,,,,
{16}
8,4,8,4,8h[8:1],,3,7h[8:1],
,3,6h[8:1],,3,5h[8:1],,3,
{16}
6h[8:1],,4,5,6,7,8,1,
2h[8:1]/4h[8:1],,,3h[8:1]/5h[8:1],,,4/6,,
{16}
7,5,7,5,7,,4,,
6h[8:1],,8,,6h[8:1],,5,,
{16}
65,,64,,53,,43,,
2h[8:1],,,1w5[16:3],,,28,,
{16}
,,,,3xh[8:1],,4xh[8:1],,
2h[8:1],,8h[8:1],,1h[8:1],,7h[8:1],,
{24}
3b,4,5,8h[8:1],,,
{24}
2b,3,4,8h[8:1],,,
{32}
1bh,2h,3bh,4h,5bxh,6h,7bxh,8h,
1bh,2h,3h,4h,5bxh,6h,7bxh,8h,
{16}
1bh/Cf,,,,A3,E4,E5,,
A1,E2,E3,,
A7,E8,E1,,
{16}
A5,E6,E7,,
A3,E4,E5,,
A1,E2,E3,,
A7,E8,E1,,
{16}
6,5,7,5,,,3,4,
2,4,,,7,5,6,4,
{16}
,,3,5,4,8>7[8:4],,,
,,,,,,,,
{16}
,,,,,,
1,5,
{16}
2b,4,2,4,2,4,2,4,
{16}
2,4,2,4,2,4,2,4,
3,3,3,3,3pp8b[8:12],3,3,3,
{16}
3bh[8:12],,,,,,,,
,,,,,,,,
{16}
,,,,,,,,
,,,,,,,,
E
