&title=骆驼之歌
&artist=王海涛
&first=0.8
&des=?
&lv_5=18+
&inote_5=(120)
{64}
1xb,E2f,E3f,A3f,,,,,8xb,B8f,Cf,B4f,A4f,,,,1xb,B1f,Cf,B5f,A5f,,,,8xb,E8f,E7f,A6f,,,,,
{32}
2,3,4,5,6,7,8,1,2b/6b,,,,,,,,
{8}4-1-4-1[12:4]/5-8-5-8[12:4],36,,,,,
{32}
1b/8b,2b/7b,3b/6b,4b/5b,,,,,
{8}2-4-1-5[12:4]/8,17,,,,,{32}
1b/8b,2b/7b,3b/6b,4b/5b,,,,,
{8}17,5,8qq8[12:2]/2,4,1pp1[12:2],,1,,
{16}7,,4,6,3pp8[12:3]/5qq8[12:3],,2,,35,,,,A8f,,,,64,,2-5[12:1],,3/8-4[12:1],,26,,8,,,,
{32}
1b/8b,2b/7b,3b/6b,4b/5b,,,,,
{8}1-4-1-4[12:4]/8-5-8-5[12:4],27,,,,,
{32}
1b/8b,2b/7b,3b/6b,4b/5b,,,,,
{8}
2/8-3[12:1],1,8p4[12:1]/6,7,{32}8q4[12:1]/3,2,1,,,,,,5b,6b,7b,,,,,,
{8}8b/4xb,2b/6b,3b/7b-3b-7b[12:2],1b/5b,A7f,A3f,
{32}
1,2,3,4,5,6,7,8,{8}1bqq6[12:3]/5b,7,1/4>1[12:1],3,4,,
{32}
8,7,6,5,4,3,2,1,{8}8bqq5[12:3]/4b,6,8/3>8[12:1],2,3,,
{32}6,7,8,1,2,3,4,5,{8}6v1[12:1]/1,2,3,,4-8[12:1]/6-2[12:1],2x/8x,46,,4-1-4-1[12:4]/5-8-5-8[12:4],36,,,,,
{32}
1b/8b,2b/7b,3b/6b,4b/5b,,,,,
{8}38,2,1-3[12:1]/6,5,4-8[12:1],,7-5[12:1],,
{8}2-4-1-5[12:4],1,,,,,{32}
1b/8b,2b/7b,3b/6b,4b/5b,,,,,{8}7x>3v5[12:6],,,,,,,,{16}2,,6,3,4bw8[12:1]*-1[12:1]*-7[12:1]*-8[12:1]*>2[12:1]/5bw1[12:1]*-8[12:1]*-2[12:1]*-1[12:1]*<7[12:1],,6b/3b,,A4f/A5f,,,,{32}
1xb/8xb,2xb/7xb,3xb/6xb,4xb/5xb-1[12:1],,,,,{8}3,2,3<6[12:1]/7p2[12:1],26,37,,{32}
1xb/8xb,2xb/7xb,3xb/6xb,4xb/5xb,,,,,{8}1-4-1-4[12:4]/8-5-8-5[12:4],27,,,,,
{32}
1b/8b,2b/7b,3b/6b,4b/5b,,,,,
{8}17,5,2-4-1-5[12:4]/8,17,,,,,46,8,5pp4[12:3]/3qq4[12:3],2,35,,A4f,,38,27,16,85,4/7-2b[12:1],3,5b,,61,72,83,14,5/2-7b[12:1],6,4b,,
{24}3b,2,1,8b,7,6,{32}4b,3,2,1pp1[12:2],8bqq8[12:2],7,6,5,,,,,,,,,,,,,,,,,
{64}
4xb,E4f,E3f,A2f,,,,,5xb,B5f,Cf,B1f,A1f,,,,4xb,B4f,Cf,B8f,A8f,,,,5xb,E6f,E7f,A7f,,,,,
{32}
3,2,1,8,7,6,5,4,3b/7b,,,,,,,,
{8}
48,26,3-8[12:1]/7-4[12:1],15,37,,{32}
1b/5b,2b/6b,3b/7b,4b/8b,,,,,
{8}
51,73,6-1[12:1]/2-5[12:1],84,62,,{32}
8b/4b,7b/3b,6b/2b,5b/1b,,,,,
{8}
4-8-4[12:2]/8,1,2/A8f,3/A4f,2-6-2[12:2],5,7/A6f,A2f,
{32}
8,7,6,5,4,3,2,1,8/3b-7b-3b-7b[16:5],4,5,6,7,8,1,2,
{8}A3f,A7f,A3f/D4/D3/E4/E3/B3,,85,7-5[12:1]/3-1[12:1],5-3[12:1]/1-7[12:1],,,,
{32}
1b/5b,2b/6b,3b/7b,4b/8b,,,,,
{8}15,37,2v4[12:1]/6v8[12:1],48,26,,
{32}
7b/3b,6b/2b,5b/1b,4b/8b,,,,,
{16}
1-3[12:1]/5,,2,,1/5-8[12:1],,6,4,5qq5[12:2],,2,,7,,,,
{64}
8xb,E8f,E7f,A6f,,,,,1xb,B1f,Cf,B5f,A5f,,,,8xb,B8f,Cf,B4f,A4f,,,,1xb,E2f,E3f,A3f,,,,,
8b,D8f/E8f,A7f,D7f/E7f,A6f,D6f/E6f,A5f,D5f/E5f,A4f,D4f/E4f,A3f,D3f/E3f,A2f,D2f/E2f,A1f,D1f/E1f,A8f/Cf,,,,,,,,,,,,,,,,,
{32}
2,3,4,,8,,1,,7,6,5,,8,1,2,,
6,5,4,3,2,1,8,7,6b/2b,5b/1b,4b/8b,,,,,,
2b,3,4,5,8b,7,6,5,1b,2,3,4,5/1b,6,7,8,15,6,7,8,1,2,3,4,5b/1b,6b/2b,7b/3b,,,,,,
{44}2xb,3xb,4xb,5xb,6xb,7xb,8xb,1xb,2bx,3xb,4xb,5xb,1xb,2xb,3xb,4xb,
7xb,6xb,5xb,4xb,3xb,2xb,1xb,8xb,7xb,6xb,5xb,4xb,8xb,7xb,6xb,5xb,
2xb,3xb,4xb,5xb,6xb,7xb,8xb,1xb,2xb,3xb,4xb,5xb,6xb,
{8}7xb>3v5[12:3],,,,4xp5b-8b<7b[12:10],,A4f/D5f/D4f/E5f/E4f,,
