&title=トリノコシティ
&artist=40mP
&first=0
&des={8}1pp2[8:1],2<6[8:1]*v5[8:1],,,
&lv_5=13
&inote_5=(135){1},
{8}3h[8:7],,4,,5,5,,6h[4:3],,,5,,4-1[8:1],4,,,
{8}7h[8:4],,5,,4,3/5,,2h[8:5],,,4,,5pp4[4:1],3,,,
{16}1,,,,2/5,,3,4,3,,6-3[8:1],,5,,7h[4:1],,
{16},,2-5[8:1]*-6[8:1],,1,,,,,,8h[4:1],,,,,,
{16}1,,,,2/6,,3,4,3,,5-1[8:1],,6,,7h[4:1],,
{16},,2,,3,,4qq5[8:2],,,,6h[4:1],,,,,,
{16}8,,,,4/7,,6,5,6,,3-6[8:1],,4,,2h[4:1],,
{16},,8<5[8:1]*-4[8:1],,1,,,,,,2h[4:1],,,,
{16},,4,,,,3/7,,6,5,6,,4-8[8:1],,3,,2-5[8:1],,
{16},,7-3[8:1],,,,1-4[8:1]*-6[8:1],,,,1b,,,,,,
{8}3,7,1,1-4[8:1],,8,7,6-3[8:1],,1,1>4[8:1]*<6[8:1],,1,,5,4,
{8}3h[4:1],,4,4<7[8:1],,2,3,4-1[8:1],,4,6pp3[8:3],,,,,1,
{8}2-6[8:1],2,5-8[8:1],5,4,4<7[8:1],,4/2,,1/8-4[8:1],2,3>6[4:1],,,,5,
{8}4-1[8:1],3,2>6[16:3],,2/8,,7,8,{16}3,,3,4,2,,6,5,6,5,7-3[8:1],,1,,1,,
{8}2,,4,5,6>3[8:1],,1,1-5[8:1],,7,7-2[8:1]*-4[8:1],,7,,1,8,
{8}7h[4:1],,8,8>3[8:1],,6,7,8-5[8:1],,8,2pp6[8:3],,,,,7,
{8}8-4[8:1],8,5,5-2[8:1],,8,7,6<3[4:1],,5,4,4-1[8:1],,6,,5,
{8}4-8[8:1],6,7<3[16:3],,1/7,,1,2,{16}6,,6,5,7,,3,4,3,4,2h[4:1],,5pp1[2:1],,5,,
{8},,,,,,3,5,4h[4:1]/6,,,6,5h[4:1]/3,,1,8,
{8}4h[4:1]/7h[4:1],,,2h[8:3]/5h[8:3],,,,,
{8}1/8,,2,3/4,,7,5>2[4:1]/6,,8,,7,6,5/4,3,2,1,
{8}7h[4:1]/5h[4:1],,,2h[4:1]/4h[4:1],,,3/6,,4,5,6,7h[4:1],,8,1-5[8:1],2,
{8}3b,,4/6,4qq5[8:2]/6,,,,8,
{8}1b/7b,,6/4-8[8:1],5,2>6[8:1]/4,1,7V51[16:3],8,
{8}3-6[8:1],2,3,7,{16}8<5[8:1],1,{8}8,2,3,
{8}4-8[8:1]/5,3,2/4>1[8:1],3,4/6-3[8:1],7,6,8,
{8}1-4[8:1],2,7<5[32:3],5>2[32:4]*v8[8:1],,,,1,
{8}2b/8b,,3/5-1[8:1],4,5/7-3[8:1],8,2<6[16:3],1,
{8}5-8[8:1],4,5,3,{16}2>5[8:1],1,{8}2,6,7,
{8}8-4[8:1]/1,7,6/8<5[8:1],7,2-7[8:1]/8,1,2,5,
{8}6>3[8:1],7,6/1pp2[8:1],2<6[8:1]*v5[8:1],,,,4,
{8}1b/7b,,2-6[8:1],3,8-4[8:1],7,8<5[8:1]/1,2,
{8}3-6[8:1],2,3/7,8,{16}1-4[8:1],2,{8}8,5/1,6,
{8}7/5<8[8:1],4,5-1[8:1]/3,4,5/7<3[8:1],8,7,1,
{8}2-5[8:1],3,6<8[32:3],8-4[8:1]*>3[8:1],,,,5,
{8}2b/8b,,2-6[8:1],1,7<4[8:1],8,1-5[8:1]/7,2,
{8}7-2[8:1],8,7/3,4,{16}5-8[8:1],6,{8}4,1/5,2,
{8}3/1-5[8:1],2,1<6[8:1]/7,8,4-7[16:2]/1,3,4/2,1,
{8}8-6[8:1],1-5[8:1],8-4[8:1],1-3[8:1],8b,1b,8b<1[4:3],1b,
{1},
{8}3h[4:2]/7h[4:2],,,,,,1/8,,
{16}7/4,,6,5,6,,3,4,2-5[8:1],,1-6[8:1],,,,,,
{16}3,,3,5,4,,8,1,6-3[8:1],5,7,4,6,,1,,
{16}2/8,,3,4,3,,6,5,7-4[8:1],,8-3[8:1],,,,,,
{16}6,,6,5,7,,3,4,2,1,4,5,8,7,3,5,
{16}1,,2,4,3,,7,5,6<1[8:1]*-2[8:1],,2>5[8:1],,,,,,
{16}8,,6,5,6,,3,4,1-5[8:1],8,1,8,1b,,,,
{16}3/7,,,,1/8,,6,5,6,5,7-3[8:1],,4,,2h[4:1],,
{16},,8,,6/5,,3,4,3,4,1h[4:1],,7,,7,,
{16}4/5,,,,2/6,,1,8,1,8,2-6[8:1],,5,,7h[4:1],,
{16},,1,,2/6,,5pp4[4:1],3,5,3,5,,,,,,
{16}1/8,,,,2/6,,3,4,3,4,2>5[8:1],,6,,8h[4:1],,
{16},,1,,3/4,,6,5,6,5,7h[4:1],,1,,2,,
{16}3h[4:1]/5,,,,7,,8,1,8,1,8-4[8:1],,2,,
{4}2-5[8:1],7-2[8:1],4-7[8:1],1-4[8:1],
{4}6-1[8:1],3-6[8:1],8-3[8:1],5-8[8:1],
{4}2b-6[8:1],7b-4[8:1],1b-5[8:1],{8}8b,8,7,
{8}6b/5b,1,3b/5b,{16}8h[1:0],7h[1:0],6h[1:0],5h[1:0],4h[1:0],3h[1:0],2h[1:0],1h[1:0]/6p3[16:30],,,,,,,,,,,,,,,,,,
