&title=Absolute Tyranny
&artist=Final Fantasy XIV
&first=-0.013
&des=雪见空音@水晶塔
&lv_5=14
&inote_1=(135)
{4},,,,
{8}5bh[8:1]/4bh[8:1],,
&inote_5=(135)
{4},,,,
{8}5bh[8:1]/4bh[8:1],,5h[8:1]/4h[8:1],,3h[8:1]/4h[8:1],,3h[8:1]/4h[8:1],,3h[8:1]/2h[8:1],,3h[8:1]/2h[8:1],,1h[8:1]/2h[8:1],,21,7b,
4h[8:1]/5h[8:1],,4h[8:1]/5h[8:1],,6h[8:1]/5h[8:1],,6h[8:1]/5h[8:1],,6h[8:1]/7h[8:1],,6h[8:1]/7h[8:1],,8h[8:1]/7h[8:1],,7h[8:1]/8h[8:1],,3bh[8:1]/5bh[8:1],,3h[8:1]/5h[8:1],,4h[8:1]/6h[8:1],,4h[8:1]/6h[8:1],,7-4[8:1]/5,,2-5[8:1],,8-4[8:1],,81,2b,3h[8:1]/5h[8:1],,3h[8:1]/5h[8:1],,4h[8:1]/6h[8:1],,4<3[4:2]b/6h[8:1],,6x/4bx,,5,,6,,
1>4[8:3]/8<5[8:3],,1x/8x,,,,36,,27,1v4[8:1]b/8-5[8:1]b,,,,36,,2,3/4z8[8:3],5x/6x,45,,
,,7h[4:1],,1,26,,E4/A3,,E6/A6,,3,2-6-2[8:3]/5-8-4[8:3],,2x/5x,,,,35,,64,5v2[8:1]/7-2[8:1],,,,3,4,5,6-1-4[8:3]b/3-7-3[8:3]b,7,3x/6x,,,,2h[4:1]/5,,6,17,,A6/E6,,E4/A3,,5,63,2/7h[4:1],,3,4,5,64,3/7>2[8:1],,5/7,,4/7>2[8:1],4,4h[4:1]/7,,3,3,2x/4xh[4:1],,
3,4,5,64,3-8[8:1]/7,,37,,3-8[8:1]/7,6,53,,14,25,36,4xh[4:1]/7x,,6,5,4,3<6[8:1],,38,,3<6[8:1]/7,7,3/7h[4:1],,8,8,1>5[4:1]/7,,5<1[4:1],,1,,5,6,7<3[4:1],,3>7[4:1],,7,,5,4,{16}35,26,1b/7bh[4:1],,,,{8}3,3,82,8-4[8:1]/2,,4<7[8:1]/8,,1-5[8:1],1,1/8h[4:1],,4,3,2xh[4:1]/7x,,5,6,6,47,4/7-3[8:1],,4V25[4:1]/7,,8,8,8,,74,63,52,1x/4xh[4:1],,2,2,36,36,,5-3[8:1]/3,,4-8[8:1],,8,,3pp5[8:3]/6qq4[8:3],,36,,,,,,4-1[8:3]/5-8[8:3],,45,,,,,B2/E3/A2/E7/B7/A7,,1>4[8:3]/8<5[8:3],,1x/8x,,,,36,,27,1v4[8:1]b/8-5[8:1]b,,,,36,,2,3/4z8[8:3],5x/6x,45,,
,,7h[4:1],,1,26,,34,25,34,16,34,2-6-2[8:3]/5-8-4[8:3],34,2x/5x,,,,35,,64,5v2[8:1]/7-2[8:1],,,,13,13,57,6-1-4[8:3]b/3-7-3[8:3]b,24,3x/6x,,,,2h[4:1]/5,,6,17,,A6/E6,,E4/A3,,65,65,65,4-1[8:1]/7-2[8:1],,,,3-6[8:1]/8-5[8:1],,,,1-4[8:1],,8-5[8:1],,7-2[8:1],,6-3[8:1],,Ch[4:4],,5-8[8:1]b,,5,,5-1[8:1]b,,5,,8,7,6,5,4,,D6/E2,,E6/E4,,B6/E2,,Ch[4:3],,B6f,,E6f,,D6f,,1-4[8:1]/8-5[8:1],,,,6-2[8:1]*-1[8:1],,,,B2/B3,,E2/E4,,A1/A4,,7-4[8:1]b*-2[8:1]b,,,,1-6[8:1],,,,B6/B7/B8/B1/B2/B3/B4/B5,,,,6-3[8:1],,,,Cf,,,,3-8[8:1],,,,B7/B6/B5/E5/A1/D2/A2/D3,,,,56,,56,,34,,34,,1-6[8:1],,1/6-3[8:1],,3-8[8:1]/6,,8-5[8:1]/3,,5-2[8:1]/8,,52,,B8/B1,B7/B6/B2/B3,B5/B4,,Cf,,,,,,,,,7bhx[8:1],5bhx[8:1],4bhx[8:1],2bhx[8:1],{32}8>7[32:7],7,6,5,1,2,3,4,8b/5h[4:1],,,,,,,,A8,A1,A2,A3,A4f/B4/8bx,,,,,,,,,,,,2<3[32:7],3,4,5,1,8,7,6,5h[4:1]/2b,,,,,,,,A2,A1,A8,A7,A6f/E6/2bx,,,,,,,,{8},4-1[8:1]/8-5[8:1],26,4/8V24[16:3],,87,6>3[8:1]*-1[8:1],,6b,,28,8b/6bh[4:1],,1,45,28,45,{32}1<2[32:7],2,3,4,8,7,6,5,1b/4h[4:1],,,,,,,,A1,A8,A7,A6,A5f/B5/1bx,,,,,,,,,,,,7>6[32:7],6,5,4,8,1,2,3,4h[4:1]/7b,,,,,,,,A7,A8,A1,A2,A3f/E4/7bx,,,,,,,,{8},2>5[8:1]/8<5[8:1],46,2-6-3[16:3]/8,,28,8-3[8:1]*-5[8:1],,8,,46,1b/7b-4[8:1],,7/3-8[8:1],2,37,6,{32}1x>8[32:7]/5,2,3,4,1x,2,3,4,5h[4:1]/1b,,,,,,,,A1,A2,A3,A4,A5f/B5/1bx,,,,,,,,28,,,,7x<8[32:7]/3,6,5,4,7x,6,5,4,3h[4:1]/7b,,,,,,,,A7,A6,A5,A4,A3f/B3/7bx,,,,,,,,{8}48,3-6[8:1]/7-2[8:1],26,3/7V13[16:3],,75,4-8[8:1]*<7[8:1],,4b,,21,3b/4bh[4:1],,2,45,17,45,{32}1x>8[32:7]/7,2,3,4,1x,2,3,4,5h[4:1]/1b,,,,,,,,1x,2x,3x,4x,5bx/1bx,,,,,,,,28,,,,7x<8[32:7]/3,6,5,4,7x,6,5,4,3h[4:1]/7b,,,,,,,,7x,6x,5x,4x,3bx/7bx,,,,,,,,{8}16,2-5[8:1]/5-1[8:1],34,2/5-2-6[16:3],,7,7-3[8:1]*-4[8:1],,7b,,25,8b/7b,,5,5,5,34,21,87,5b<1[4:1]/6b,,1>5[4:1],C,5<1[4:1],C,1,C,5-1[8:1]b,,,,,3bh[32:15]/7bh[32:15],,,,{64}E4/E8f,B4/B8,B5/B1,E6/E2,,,,,,,,,,,,,{8},,3h[8:1]/4h[8:1],,3h[8:1]/4h[8:1],,3h[8:1]/2h[8:1],,3h[8:1]/2h[8:1],,1h[8:1]/2h[8:1],,21,7b,
4h[8:1]/5h[8:1],,4h[8:1]/5h[8:1],,6h[8:1]/5h[8:1],,6h[8:1]/5h[8:1],,6h[8:1]/7h[8:1],,6h[8:1]/7h[8:1],,8h[8:1]/7h[8:1],,7h[8:1]/8h[8:1],,3bh[8:1]/5bh[8:1],,3h[8:1]/5h[8:1],,4h[8:1]/6h[8:1],,4h[8:1]/6h[8:1],,7-4[8:1]/5,,2-5[8:1],,8-4[8:1],,81,2b,3h[8:1]/5h[8:1],,3h[8:1]/5h[8:1],,4h[8:1]/6h[8:1],,4h[8:1]/6h[8:1],,2-5[8:1]/5,,7-4[8:1],,1-5[8:1],,18,,4b/7b,
