&title=ハレ晴レユカイ
&artist=平野绫/茅原实里/后藤邑子
&first=0.039
&des=Hwaaaxd
&lv_5=13
&inote_5=(172){4},{1},,,{4},,,{2}1-4[8:1]/5-8[8:1],
2-6[8:1],
{4}8<5[8:1],{8}2-4[8:1],2-8[8:1],{2},{4}1>4[8:1],
{8}7-5[8:1],7-1[8:1],{2},{8}1-6[8:1]/8-3[8:1],
{2},{8}5-8[8:1],2,8-3[8:1],
,3-7[8:1],,1<4[4:1]*pp4[4:1],{2},{4}7b<5[8:1],
3>1[8:1],{2}4-8[8:1],
{4}1>3[8:1],5<7[8:1],{2}4z8[8:1],
{4}6-8[8:1],1-5[8:1],6-8[8:1],1-3[8:1],
4-8[8:1],1-3[8:1],4-8[8:1],2,
1bV37[4:1],7V51[4:1],{8}8,8qq6[8:1],,8pp2[8:1],
,8-4[8:1],,8,{4}7-3[8:1],7,
{8}1p7[8:3]*>5[4:1],{4},,,{8}8-4[8:1],
{4}8,{8}6-8[8:1],5-1[8:1],6-2[8:1],5-3[8:1],6<5[8:3],5,
6,{4},{8}8,{2}8-4[8:1],
{8}6p4[8:3],{4},{8}8,{2}8-4[8:1],
{8}6p4[8:3],{4},{8}8,8-4[8:1],{4},{8}7-3[8:1],
,3V58[8:1]*V16[8:1],{2},{8}7/3,3/7,
8-4[8:1],2<4[16:3],8
,2,,3/1-5[8:1],8,1/7<3[16:3],
,2-6[8:1],1,2/8V24[8:1],,5,6<4[4:1],7/5,
6/8h[#1.046513],,{4},{8}1-4[8:1],{4},{8}5b<8[8:1]*>2[8:1],
,5b,,1b,{2}1bw5[8:1],
{8}1>3[8:1],6v4[8:1],1<7[8:1],6,{4}1>3[8:1],{8}1<7[8:1],4v5[8:1],
1>4[8:1],4<7[12:1],1w5[8:1],8,{4}1,{8}6,7,
8<6[8:1],3v5[8:1],8>2[8:1],3,{4}8<6[8:1],{8}8>2[8:1],5v4[8:1],
8<5[8:1],5>2[12:1],8w4[8:1],1,{4}8,{8}3/7-3[8:1],2/6,
{4}7/3qq5[4:1],{8}3/6<1[8:1]
,5,{4},{8}6/2-6[8:1],7/3,
{4}2/6pp4[4:1],{8}6/3>8[8:1],4,{4},{8}4/7-3[8:1],6,
{4}7/2-5[8:1],{8}2/1,8-3[8:1],,5-2[8:1],,4-7[8:1],
,1-6[8:1],,8-3[8:1],,1b,{4},{8}8<6[8:1],
3v5[12:1],8>2[8:1],3,7-5[8:1],4-2[12:1],7>1[8:1],4,
6-2[12:1],3-1[12:1],6pp5[16:5],4qq5[16:3],{2},{8}1>3[8:1],
6v4[12:1],1<7[8:1],6,2-4[8:1],5-7[12:1],2<8[8:1],5,
3-7[8:1],6<5[4:1],3,6,{4},{8}3/7-3[8:1],1/5,
{4}7/3qq5[4:1],{8}3/6<1[8:1],4,{4},{8}6/2-6[8:1],4/8,
{4}2/6p4[4:1],{8}6/3v8[8:1],2>5[8:1],{4},7-5[8:1],
7-2[8:1],7-4[8:1],7-1[8:1],7<3[16:3],
1>5[16:3]*qq6[8:3],{2},{4}2,
5b/1bqq3[2:1],5,5,5qq7[2:1],
1,1,1,7/1pp5[2:1],
7,7
,7V15[4:1],5<8[8:1]*qq3[8:1],
,4v7[8:1],{8}5,6-1[8:1]*-8[8:1],,6,
,3V57[8:1],{4}3-7[16:1],{8},8qq6[12:1],{4}8pp2[8:1],
{8},4-6[8:1],4-2[8:1],4-8[12:1],{4}4>6[4:1],5pp2[16:5],
{8},1-5[16:3],{4},{8},7b,,6/8-3[8:1],
1,8b/2b,,6/8<5[8:1],1,8b/2b>5[8:1],,1bw5[8:1],
,1b,
