&title=Lv.15 30 min 4-in-1 compilations
&artist=ludicin&takehirotei vs HowToPlayLN
&first=0
&des_6=aiyimono33
&lv_6=15+
&des=aiyimono33
&clock_count=4
&inote_6=(175)
{1},,,
{4},,,
{8},
{24}1x/8x,2x/7x,3x/6x,
{16}4bx/5bx,,,,,,E7,,,,,,E3,,,,,,,,,,,,,,5,,4,,3/6,,,,,,,,,,,,,,B6,,E6,,
{16},,,,,,,,,,3,,4,,5,,,,,,,,,,,,,,B3,,E4,,,,,,,,,,,,Chf[8:19],,,,,,,,,,,,,,,,,,,,,,,,,,,,,,,,,,,,,,
{16}2qq5[2:3],,,,,,,,5,,,,,,,,6h[4:1],,,,,,,,,,A7,,E7,,B6,,,,,,,,,,,,,,B4,,E4,,,,,,,,,,,,E1,,C,,E5hf[8:33],,,,,,,,,,,,,,E6,,E7,,,,,,,,,,,,,,E4,,E3,,,,,,,,,,,,,,,,,,,,,,,,,,,,,,,,,,,,,,,,,,,,,,,,,,,,,,,,,,,,,,,,,,,,,,,,,,,,,,,,,,,,,,,,,,,,,,,,,,
{16}B5,,B4,,3h[4:15],,,,B2h[8:1],,,,,,,,,,,,,,,,B4h[8:1],,,,,,,,,,,,,,,,B6h[8:1],,,,,,,,,,,,,,,,B8h[8:1],,,,,,,,
{16}8,,1,,1>4[8:1],,,,E7h[8:1],,,,1,,,,1,,8,,8<5[8:1],,,,E3h[8:1],,,,8,,,,8,,2,,2>5[8:1],,,,B7h[8:1],,,,2,,,,2,,7,,7<4[8:1],,,,B2h[8:1],,,,7,,,,7,,3,,3<6[8:1],,,,B8h[8:1],,,,3,,,,3,,6,,6>3[8:1],,,,B1h[8:1],,,,6,,,,4/5,,3,4,,,2,,4/5,,6,5,,,7,,4/5,,,1/2,,7/8,,,4<6[8:1]/5>3[8:1],,,,,,,,
{16}2>5>2[2:3]/8,,,,8,,,,7,,,,7,,,,6,,,,6,,,,5<6>5[8:1],,,,,,,,2/6<1<6[2:3],,,,2,,,,3,,,,3,,,,4,3,2,,2,,,,3<4>3[8:1],,,,,,,,2,1,2,1,2,1,2,1,2>5[8:1],1,2,1,2,,,,7,8,7,8,7,8,7,8,7,8,7,8,6hx[8:1],,,,
{32}1,2,3,4,5,6,7,8,1,2,3,4,5,6,7,8,1,2,3,4,5,6,7,8,1,2,3,4,5,6,7,8,
{16}1/C,,,,3x/4x,2,2x,2,5x/6x,7,7x,7,Chf[4:1],,,,
{16}8-4[8:1],,,,2-8[8:1]/8,,,,2/6-4[16:1],,,3-7[16:1]/6,,,3/8-2[16:1],,,4-6[16:1]/8,,,7h[8:1]/4,,,,8,1,8,1,7<5[8:1]/2>4[8:1],,E5,,
{16},,,,2/7,,2/7,,
{16}3,4,2<7[8:1],5,3z7[16:3],,3h[8:1],,,,,,6,6,5h[2:1],,
{32}8b,7,6,,,,1b,8,7V53[4:1],,,,2b,1,8,,
{16}3V57[4:1]/7,,,,C,,1,,1hx[8:1],,,,
{16}1-5[8:1],8,2,7,A1,,6h[8:1],,
{32}5x>1b[8:1],4>8[8:1],3>7b[8:1],2<6[8:1],,,,,
{16}2/5,,E5,,Ch[8:1],,,,
{16}2>5[8:1]/7,,,,2/1,,8,8,4,,5/6,,4/7,,2,5,3h[8:1],,2,2,3h[8:1],,4,4,3h[8:1],,,2h[8:1]/4h[8:1],,,1/5,,
{24}1x-6[8:1]/5x-2[8:1],2/6,3/7,
{16}4/8,,1b/5b,,,,
{24}2,6,2,6,,,
{16}3/5,,1,,6,5,7x,,7-4[8:1],,4,4,7-3[8:1],,3,3,7>5[4:1],,1b,,7,,,,C,,6,6,5>2[8:1],7,4,8,5,,E7,,
{24}1b,8,2,7,,,6b,5,7,4,,,3b,4,2,
{16}5,C,,3/7,,,
{16}4/6>4[8:1],,,,3,,2,,1>4[8:1],,,,
{24}4/1,5,6,7,,,
{16}5,6,4,5,2b,,2,,4,3,5,4,
{16}7x<4[8:1],,,,7/8,,1,,2/6,,3,,5,5,4,6,
{16}3>8[8:1],,,,3/4,,5,,6/2,,7,,2h[8:1]/8h[8:1],,,3h[8:1]/7h[8:1],,,4/6,,2/8-4[8:1],,,,2,,,,3h[8:1]/5h[8:1],,,2h[8:1]/6h[8:1],,,1h[8:1]/7h[8:1],,,2h[8:1]/6h[8:1],,,3h[8:1]/7h[8:1],,,4h[8:1]/8h[8:1],,,1h[8:1]/5h[8:1],,,,Ch[8:1],,1h[8:1],,,8h[8:1]/2h[8:1],,,7/3,,
{12}6/5,7,7,4/3,2,2,6/4,7,7,5/3,2,2,7,6,5,4,3,2,
{16}1bp4[8:1]/8bq5[8:1],,,,
{12}1/8,,,3,4,4,2,4,4,1>4[8:1],1,1,E6h[8:1],,,2>5[8:1],2,2,E7,,,3<6[8:1],3,3,E8,,,4<7[8:1],4,4,E1,,,5<8[8:1],5,5,E2,,,6,6,6,
{24}7,6,5,4,3,2,
{16}1xp4[8:1]/8xq5[8:1],,,,1/8,,,,
{12}6,5,5,7,5,5,8<5[8:1],8,8,E4h[8:1],,,7<4[8:1],7,7,E3,,,6>3[8:1],6,6,E2,,,5>2[8:1],5,5,E1,,,4>1[8:1],4,4,E8,,,3,3,3,
{24}2,3,4,5,6,7,
{16}8x-5[8:1]/1x-4[8:1],,,,8/1,,,,
{12}3/5,2,2,
{24}8,7,6,5,4,,
{12}5/3>8[8:1],3,3,E6h[8:1],,,2<7[8:1],2,2,E5,,,1<6[8:1],1,1,E4,,,8<5[8:1],8,8,E3,,,7<4[8:1],7,7,E3,,,6,6,6,
{24}7,6,5,4,3,2,
{16}1x-4[8:1]/8x-5[8:1],,,,1/8,,,,
{12}2,6,3,4/5,,,7,3,6,4/5,,,3,3,3,6,6,6,4/5,,2,3/4,,7,5/6,,4/5,
{24}1,8,1,8,1,8,
{16}2q5[4:3]/7,,,,,,,,,,,,,,,,
{16}8,,,,8,,,,8,,,,8,,,,7,,,,7,,,,7,,,,7,5,,5,6,,,,6,,,,6,,,,6,,,,5,4,5,,3/6,,,,
{16}2,5,3,4,B2h[8:1],,,,
{16}8,1,8,1,7,2,7,2,6-1[8:1],4,5,3,6,,,,2,1,2,1,3,8,3,8,5,6,4,7,E5h[8:1],,,,8,1,7,2,6,3,5,4,1,2,8,3,
{32}7,6,5,4,3,2,1,8,
{16}7/3,,2,2,4/3,,7,7,5/6,,,,Ch[4:1],,,,
{16}7-4[8:1],8,6,1,7,,3,,3-8[8:1],4,2,5,3,,6,,6v1[8:1],5,7,4,6,,2,,2>5[8:1],1,3,8,2,,8,,7-4[8:1],4,,4,7-3[8:1],,3,3,7,,4,,
{24}4h[8:1]/2>5[8:1],1,8,7,,,
{16}2-6[8:1],,6,6,2,,8,,7>2[8:1],3,7,3,7,,3x,,
{16}3-8[8:1],4,2,5,3,,7,,7-4[8:1],8,6,1,7,,2,,2v5[8:1],1,3,8,2,,6,,6<1[8:1],5,7,4,6,,3,,3-1[8:1],1,,1,3x-5[8:1],5,,5,3,,7,,7-1[8:1]*-5[8:1],,,,7,,,,2-8[8:1],5,3,4v7[8:1],2,,,4,2v3-5b[8:1],,2x/6x,,6,,,,4x/7,,3,5,2-5[8:1],,5,5,2-6[8:1],,6,6,2,,8,,7<4[8:1],,,,3h[8:1]/7,,,,2/5,,3,3,4-8[8:1],,1,,2>5[8:1]/4,,,2,1,,1,,3/7-4[8:1],,4,4,7-3[8:1],,3,3,7,,2,,1<6[8:1],5,1,5,1,,5h[8:1],,1b,5,2,4,1,5,8,6,3,4,2,5,1,6,8,7,4,8,3,1,4,8,5,7,2,1,3,8,4,7,5,6,
{16}3,4,3,1,4,5,4,8,5,6,5,7,8,7,1,6,2<4[4:1],5,3,4,2,,,,8p4[8:1],,,4,8<5[8:1],,3,,8/2h[8:1],,,,4,4,4,,3-5[16:1]/5,,,3-7b[8:1]/7,,,8,8-3-7[16:3],,8xh[8:1],,,2,2,2,,3/6-4[16:1],,,1/6-1b[8:1],,,2,2-6-1[16:3],,2hx[8:1],,,7,7,7,,2-8[16:1]/5,,,2-5b[8:1]/8,,,6,6-2-5[16:3],,6hx[8:1],,,4,4,4,,8-5[8:1]/7-2[8:1],,,8/7,,,,,1/2,,3,,1/2,,8,,1/2,,3,,4/5,,6,,
(170)
{8}7/8,6,7/8,1,7/8,6,4/5,3,
(165)
{8}1/2,3/8,4/7,5/6,
{16}3,3,4,2,6,6,5,7,
(150)
{24}1,2,3,8,7,6,2,3,4,7,6,5,
{8}4,4/5,2>4b[8:1]/7<5b[8:1],,
(75)
{32}2/7,,,,
{64}1,8,7,6,5,4,3,2,
{48}8,7,6,5,4,3,
{32}7,6,5,4,6,,5,,
{24}6,5,6,
{32}1s5[16:1]/8z4[16:1],,
{64}E7,E6,E5,E4,
{32}E3,,E1/Cf,,1/8,,,,
{48}2b,2,3b,3,2b,2,
{64}4x<7[16:1],,2x,3,4,,1x,2,3,,8x,1,2,,7x,8,
{24}1,2h[48:1],3h[48:1],4h[48:1],5h[48:1],6h[48:1],
{32}2/7,3,4,5,
{48}7z3[16:1],8s4[24:1],7,8,7,8,
{32}1h[16:1]/6h[16:1],,,,7/8,,,,3/4,,2,5,1,6h[16:1],E5h[32:1],,
{32}4/7<4[16:1],,3,5,2v5[16:1],8,5,7,E1,,,,1h[16:1]/2,,,,
{64}8V61[16:1]/4,3/7,2/6,1/5,
{32},Ch[32:1],B6/B2,7x/1x,5hx[32:1],,5V38[16:1]/8,,,2/5,,1-5[16:1],,2/5h[32:1],1b,,,,7x,1/5,,
{96}A6,D7,A7,
{32}D8/3h[16:1],,,2h[16:1]/4h[16:1],,,1/5,,
{48}7/8,6,5,
{32}4,2/5,,2/5,,,3,3,4,2,,8,1,,6,6,5,7,,1,8,2,3/4,,7,5/6,,3,
{64}2/4,E5,E6,E7,
{32}E8/2,2,1,3,,5,4,
{64}7,6,
{32}5/4,,2,1/3,,6,
{64}5/7,E5,E4,E3,
{32}E2/7p4[8:1],7,8,6,,4>5[32:3],5,,1b,,,,1h[16:1],,,,2,2,4,3,,8,1,,7,7,5,6,,4,5,,2/7,2/7,,1/5,,2,4,3,5>2[16:1],,7,8/6,,1h[32:1],,,5/8<5[16:1],,1,1,,2,4,,3>8[16:1]/8,,4,4,,
{32}7,5,,3/6pp4[4:1],,5,5,3,4,2,5,1b<5[16:1],,,,1h[8:1],,,,,,,,,8h[32:1],,,4,5,3,4,,2,2,,5,4,6,5,,7,7,3,4/5,,1/2,3/8,,5/6,4/7,,6,6,3,5,,
{64}1/2,3/8,4/7,,,,
{32}3,3,6,4,,
{64}7/8,1/6,2/5,,
{32}4,3b-8[16:1],,8,1,,5<4[16:1],6,,3,,,,5h[32:1],,,,
(150){4}1x/8x,1/8,
(165){4}2/7,2/7,3/6,3/6,
(170){4}4/5,4/5,
{8}3/4,2,1/8,7,
(175){8}5/6,4/5,3/4,1/8,
(180){16}2h[2:1]/7h[2:1],,,,,,,,,,,,
{16}1,8,1,8,2/7,,3,4,2h[8:1],,1,2,1,3,5,4,6-1[8:1],,6h[8:1],,5,,5,,8-3-7[4:1],4,7,3,8,,2,,1,,6/8,,1/5,,2,4,3h[8:1],,6,5,7,8,7,5,8,1,8,4,1,2,1,3,4,2,5,1,6,8,7,1,8h[8:1],,2,1,3h[8:1],,5,4h[8:1],,6,5h[8:1],,7,8,7,,6,3,5,4,3/6,,2,4,1/5,,1,,2,8,2,8,3,,3,,
{16}7,6,5,4,1,2,7,6,2,3,4,5,8,7,2,3,8,7,6,5,4/8,,4/8,,
{16}1,3,2,2,5,4,6,5,
(190){16}3/7,,2,8,1h[8:1],,3,,4,2,5,3,7,6,5,4,1,8,2,7,1,2,3,4,6,5,7,4,8,1,8,1,2/7,,3,4,2h[8:1],,6,5,7h[8:1],,1,8,1h[8:1],,7,5,6,4,5,3,4h[8:1],,1,,2/8,,7,3,6,4,5,,4/6,,2,8,2,,3/7,,6,6,4,4,5,5,3,3,4,,1/2,,3/8,,4/7,,5/6,,3/4,,1/8,,2/7,,3,4,6,5,3,4,6,5,2,3,7,6,2,3,7,6,1,2,8,7,1,2,8,7,
{32}1,2,3,4,5,6,7,8,1,2,3,4,5,6,7,8,
(200){16}1/Cf,,,,2,5,3,4,2,5,3,4,8,7,1,6,2,5,3,4,1,1,8,8,2,2,7,7,5,6,4,5,2,1,3,8,4,5,3,6,1,8,3,4,1,5,2,8,4,7,3,6,4,4,5,5,3,3,6,6,
{24}1,2,3,8,7,6,
{16}4/5,,,,
{16}7,4,6,5,7,4,6,5,1,2,8,3,7,4,6,5,8,8,1,1,7,7,2,2,4,3,5,4,7,8,6,1,5,4,6,3,8,1,6,5,7,3,1,2,4,3,4,1,5,4,5,8,6,5,6,7,
{32}5,4,3,2,1,8,7,6,
(210){16}2,4,3,4,1,8,2,2,7,5,6,5,8,1,7,7,5,6,1,8,4,5,1,8,3,4,3,4,2,2,5,5,1,4,3,4,2,5,1,1,8,5,6,5,7,4,8,8,3,4,2,5,8,7,1,6,2,8,2,4,
{24}1,2,3,7,6,5,
(220){16}3,4,3,4,2,1,2,,6,5,6,5,7,8,7,,2,5,3,4,1,8,2,7,
{32}1x,2,3,4,8x,7,6,5,
{16}1,1,1,,
{16}2/8,,3/4,,1/7,,5/6,,1/8,,3/4,,5/6,,2/7,,4/5,3/6,2/7,,2,4,1,,7,5,8,,
{32}1x-5[8:1],8/4,7/3,6/2,5/1,,,,
{16}1bV74[4:7]/5bV38[4:7]`Cf,,,,,,,,,,,,,,,,,,,,,,,,,,,,,,,,
(200){4},,,,,,,,
(180){4}C,,,,,,,,,,,,,,,,
(175){1}E7/E3,,E1,,D5,,Ch[4:7],,
{16}2q5[2:3]/7h[4:7],,,,,,,,,,,,,,,,,,,,,,,,,,,,,,,,
{16}6pp1[2:3]/4h[4:7],,,,,,,,,,,,,,,,,,,,,,,,,,,,,,,,
{16}8h[4:7]/2>5[2:1],,,,,,,,,,,,,,,,5qq1[2:3],,,,,,,,,,,,,,,,7h[4:3],,,,,,,,,,,,,,,,
{16}2-5[2:1]/6-1[2:1],,,,,,,,,,,,,,,,
{16}3h[4:1]/7<4[2:3],,,,,,,,2h[4:1],,,,,,,,1h[2:1],,,,,,,,,,,,1,,,,8q5[2:3]/4q1[2:3],,,,,,,,,,,,,,,,,,,,,,,,,,,,,,,,
{16}7V53[4:3],,,,,,,,,,,,3V17[4:3],,,,2,,,,,,,,,,,,6,,,,5w1[2:1],,,,,,,,,,,,,,,,3-8[2:1]/7-4[2:1],,,,,,,,,,,,,,
{48},,,1b/5b,2/6,3/7,
{16}4h[4:3]/8h[1:3],,,,,,,,,,,,,,,,6h[4:3],,,,,,,,,,,,,,,,2h[4:3],,,,,,,,,,,,,,,,
{16}1pp8[4:3],,,,,,,,8,,,,,,,,7h[4:7],,,,,,,,,,,,,,,,5h[4:3],,,,,,,,,,,,,,,,3>8[2:3]/7<4[2:3],,,,,,,,,,,,,,,,,,,,,,,,,,,,,,,,
{16}1,5,1,5,1,5,1,5,2,6,2,6,2,6,2,6,3,7,3,7,3,7,3,7,4,8,4,8,4,8,4,8,3,7,3,7,2,6,2,6,1,5,1,5,8,4,8,4,1,5,2,6,3,7,4,8,5,1,4,8,3,7,2,6,
{24}1,5,1,5,1,5,1,5,1,5,1,5,1,5,1,5,1,5,1,5,1,5,1,5,1,5,1,5,1,5,1,5,1,5,1,5,1,5,1,5,1,5,1,5,1,5,1,5,
{32}1,2,3,4,5,6,7,8,1,2,3,4,5,6,7,8,1,2,3,4,5,6,7,8,1,2,3,4,5,6,7,8,
{16}1b-5[8:7],,2,8,2,7,3,7,4,6,4,5,1-5b[8:1],,,,
{16}1b,,6,4,7<4[8:1],,2/8,,
{24}7/3,,,3,2,1,
{16}8/7-4[8:1],,6,5,7,,2,5,3>8[8:1],,4/6,,3/7,,
{24}7-3b[8:1],6,5,
{16}4/3,,1,,1b,,2,4,3>8[8:1],,6/4,,7/3,,
{24}7,6,5,
{16}4/3-8[8:1],,2,1,3,,6,1,7<4[8:1],,2/8,,3/7,,
{24}3,2,1,
{16}8/7,,
{24}7,6,5,
{16}4/3,,4,3,5>2[8:1],,3/7,,
{24}5/6,,,1,8,7,
{16}6/3,,3,4,2,,8,2,1<6[8:1],,3/7,,1/2,,
{24}5-1b[8:1],4,3,
{16}2/7,,7h[16:1],,7<4[8:1],,8,1,7,,1-6[8:1],8,2-5[8:1],,1,,2,,7,,7,,6,5,6,,5,4,5,,4,3,4<7b[8:1],,2,,
{16}1b,,3,5,2>5[8:1],,7/1,,
{24}2/6,,,6,7,8,
{16}1/2-5[8:1],,3,4,2,,7,4,6<1[8:1],,5/3,,6/2,,
{24}2-6b[8:1],3,4,
{16}5/8,,8,,7b,,7,5,6<1[8:1],,3/5,,2/6,,
{24}2,3,4,
{16}5/6-1[8:1],,7,8,6,,3,8,2>5[8:1],,7/1,,6/2,,
{24}6,7,8,
{16}1/5,,3/7,,
{16}1-5[16:1],,,6-1[16:1],,,4,,4,,7,5,,,3/4,,8-4[16:1],,,3-8[16:1],,,5,,5,,2,4,,,1/5,,8,7,8,7,1,6,1,6,2,5,2,5,3,4,3,4,
{32}3,2,1,8,7,6,5,4,3,2,1,8,7,6,5,4,3,2,1,8,7,6,5,4,
{16}8-4[8:1],,5,3,8,,3,5,2>5[8:1],,7-3[8:1],7,2-8[8:1],,7,,2,,4b,,3/5,,6,5,7<4[8:1],,2-6[8:1],2,7-1[8:1],,2,,7,,5b,,4/6,,
{16}3,4,2>5[8:1],,1-4[8:1]/8,,
{24}2-7[8:1]/6,7,8,
{16}1,,2,,8b,,2/6,,6,5,7<4[8:1],,1/8-5[8:1],,
{24}3/7-2[8:1],2,1,
{16}8,,7,,1b,,
{16}3/7,,3,5,4>1[8:1],,
{24}1-5[8:1],8,7,
{16}6/4,,
{24}5,6,7,
{16}8,,
{24}4/8,3/7,2/6,
{16}1/5,,6,4,5<8[8:1],,
{24}8-4[8:1],1,2,
{16}3/5,,
{24}4,3,2,
{16}1,,
{24}1/5,2/6,3/7,
{16}4/8,,3,4,2,,6,5,7,,1,8,1,,3/7,,3/7,,4,5,,6,5,,3,7,2,8,1-5b[8:1],,5,5,A1f,,,,
{32}4x,3,6x,7,4x,3,6x,7,3x,2,7x,8,3x,2,7x,8,3x,2,5x,6,3x,2,6x,5,2x,1,6x,7,2x,1,6x,7,4x,3,7x,8,4x,3,7x,8,3x,2,6x,7,3x,2,6x,7,2x,1,5x,6,2x,1,5x,6,3x,2,7x,8,3x,2,7x,8,4x,3,6x,7,4x,3,6x,7,2x,1,6x,7,2x,1,6x,7,3x,2,5x,6,3x,2,5x,6,2x,1,7x,8,2x,1,7x,8,3x,2,6x,7,3x,2,6x,7,4x,3,5x,6,4x,3,5x,6,
{16}4b,,4/5,,5,4,5,4,6,3,6,3,7,2,7,2,8,1,8,1,7,8,7,8,6,1,6,1,5,2,5,2,4,3,4,3,
{32}5,6,7,8,1,2,3,4,5,6,7,8,1,2,3,4,5,6,7,8,1,2,3,4,5,6,7,8,1,2,3,4,
{16}5/1,,2,3/4,,7,5/6,,2,1/3,,7,6/8,,4,5,4-8[8:1],,,1,,,1,,1,7,2,6,3/5,,2,2,4-8[16:1],,,2>5[16:1]/4,,,2/6,,7h[8:1],,5,6,,,4/5,,4/5-1[16:1],,,5/7<4[16:1],,,3/7,,2,2,8,8,3/7,,3/7,,1>4[16:1]/5<8[16:1],,,1/5,,,2x/6x,,2b/6b,,3,5,4h[8:1],,8,8,2>5[16:1],,,6<1[16:1],,,2,,2,,8,6,7,,4/5,,7<4[16:1],,,3>8[16:1],,,7,,7,,1,3,2h[8:1],,Ch[8:1],,
{32}4x,5,4,,3,,6,,4x,5,4,,3,,6,,1x,8,1,,2,,7,,1x,8,1,,2,,7,,
{16}3,4,5,6,8z4[4:1],1,8,,2,2,,3,3h[4:1],,,,7b,,,,
{32}1x,2,5x,4,1x,2,5x,4,1x,2,5x,4,1x,2,5x,4,1x,2,8x,7,1x,2,7x,8,2x,3,7x,6,2x,3,7x,6,3x,4,6x,5,3x,4,6x,5,
{16}1b,1,8,2,7<4[8:1],,4,,3,,2,,
{32}8x,7,4x,5,8x,7,4x,5,8x,7,4x,5,8x,7,4x,5,8x,7,1x,2,8x,7,2x,1,7x,6,2x,3,7x,6,2x,3,6x,5,3x,4,6x,5,3x,4,
{32}8bv3[8:1],,2,1,
{16}2>5[8:1],,8b,,2b,,
{32}8b,,,,2,3,8,7,2,3,8,7,2,3,8,7,3,4,7,6,3,4,7,6,2,3,4,5,2,3,4,5,1b,,,,7,6,1,2,7,6,1,2,7,6,1,2,6,5,2,3,6,5,2,3,7,6,5,4,7,6,5,4,8b,,,,2,3,1,8,2,3,1,8,2,3,1,8,3,4,8,7,3,4,8,7,4,5,7,6,4,5,7,6,3,4,8,7,2,3,7,6,1,2,6,5,8,1,5,4,
{16}Chf[16:3],,,,,,,,
{32}8,7,1,2,8,7,1,2,8,7,2,3,8,7,2,3,8,7,3,4,8,7,3,4,8,7,4,5,8,7,4,5,8,7,5,6,8,7,5,6,8,1,2,3,8,1,2,3,
{24}6,5,6,5,6,5,
{48}E8,E1,E2,E3,E4,E5,
{32}E6f,,,,1,2,8,7,1,2,8,7,1,2,7,6,1,2,7,6,1,2,6,5,1,2,6,5,1,2,5,4,1,2,5,4,1,2,4,3,1,2,4,3,1,8,7,6,1,8,7,6,
{24}3,4,3,4,3,4,
{32}2,6,2,,7,,1,,
{48}A8,D1,A1,D2,A2,D3,A3,D4,A4,D5,A5,D6,8x,1x,2x,3x,4x,5x,6x,,,,,,A8,D1/E1,A1,D2/E2,A2,D3/E3,A3,D4/E4,A4,D5/E5,A5,D6/E6,8x,1x,2x,3x,4x,5x,6x,,,,,,A8,D1,A1,D2,A2,D3,A3,D4,A4,D5,A5,D6,A8,D1/E1,A1,D2/E2,A2,D3/E3,A3,D4/E4,A4,D5/E5,A5,D6/E6,8x,1x,2x,3x,4x,5x,8x,1x,2x,3x,4x,5x,D1/E1,E2/D2,E3/D3,E4/D4,E5/D5,E6/D6,E7/D7,E8/D8,E1/D1,E2/D2,E3/D3,E4/D4,
{48}E5f/D5f/Ch[8:1]f,,,,,,,,,,,,B1,B2,B3,B4,B5,B6,B7,B8,E1,E2,E3,E4,E5,E6,E7,E8,A8,A1,A2,A3,A4,A5,A6,A7,D8,A8,D1,A1,D2,A2,D3,A3,D4,A4,D5,A5,D1/E1,A8,D8/E8,A7,D7/E7,A6,E6/D6,A5,E5/D5,A4,D4/E4,A3,E3/D3,A2,E2/D2,A1,E1/D1,A8,E8/D8,A7,E7/D7,A6,E6/D6,A5,
{16}Cf,,2,3/1,,6,5/7,,3,1,,1,7,5,,5,3v1[8:1]/7v5[8:1],,1/5,,,,,,6,8,,8,2,4,,4,6-1-7[8:1]/2-5-3[8:1],,4/8,,,,,,2,4,,4,2,8,,8,6,,1/7,,,6h[8:1]/2h[8:1],,,7,5,,5,7,1,,1,3s7[4:1],,2/8,,3/7,,,,
{16}8,1,4,3,6,2,B6,B5,1,8,5,6,3,7,B3,B4,8,1,7,2,6,3,5,4,E5,E4,E6,E3,E7,,Ch[1:0]f,,
{24}3,4,3,4,3,4,
{32}2,1,8,7,8,1,2,3,
{24}6,5,6,5,6,5,
{32}7,8,1,2,1,8,7,6,
{24}4,5,4,5,4,5,3,6,3,6,3,6,2,7,2,7,2,7,
{32}1-5[8:1],8,7,6,5/1,4/8,3/7,2/6,
{16}1bV35[4:7]/5bV71[4:7],,,,,,,,,,,,,,,,,,,,,,,,,,,,,,,,,,,,,,,,,,,,,,,,,,,,,,,,,,,,,,,,C,,,,,,E6,,E4,,,,,,E3,,E7,,,,,,E8,,E2,,,,,,,,,,,,,,,,,,,,,,,,,,,,,,,,,,,,,,,,
(170){4}B7h[2:7]/1,,E3h[8:1],,,,E4h[8:1],,,,B3h[8:1],,,,B4h[8:1],,
(165){4},,B5h[8:1],,,,E6h[8:1],,
(150){4},,E5h[8:1],,,,Ch[4:1],,
(120){1},,,,,,,
(150){1},
{4},,{8},
(190)
{8}4>5[4:7]/5,,5,,5,,,,4,,4,,,,4,,4>2<5[4:7],,5,,5,,,,2,,2,,,,2,,4>2<8<5[4:7],,5,,5,,,,2,,2,,,,8h[8:1],,4>2<8<6>5[8:13],,5,,6,,6,,2h[8:1],,2,3,4,3,2,1,
{8}4-7<6-1[4:5]/8-3>2-5[4:5],,,,,,,,,,,,,,,,
{8}3/7<5[2:3]*>3[2:3],,,,,,,,,,,,,,,,
{8}4-2<8-3[4:5]/8-6>4-7[4:5],,,,,,,,,,,,,,,,
{8}4/8V24[2:3]*V64[2:3],,,,,,,,,,,,,,,,
{8}6h[1:1]/4h[2:1],,,,,,3,,2h[1:1],,,,4h[2:3],,,,,,3,,5,,7,,1h[2:1],,,,5h[4:1],,,,
{8}3h[1:1]/5h[2:1],,,,,,6,,7h[1:1],,,,5h[2:3],,,,,,6,,6h[16:1],6h[16:1],6h[16:1],6h[16:1],
{16}4,3,2,1,8,7,6,5,
{8}4/3h[16:1],3h[16:1],3h[16:1],3h[16:1],
{8}3b-7[2:7],,,,4h[4:1],,,,5,,,,5h[4:1],,,,6h[16:1],6h[16:1],6-4[4:1],,,,,,4h[4:1],,,,3-7b[8:1],,,,
{8}4/6,,4/6h[8:1],,2/6,6,2/6,,6h[8:1]/8,,6/8,6,5/6,4,2/6,2/6,
{8}5/3,,5/3h[8:1],,7/3,3,7/3,,3h[8:1]/1,,3/1,3,4/3,5,7/3,7h[16:1]/3h[16:1],
{8}1/7,,1/7h[8:1],,3/7,7,3/7,,7h[8:1]/5,,7/5,7,8/7,1,3/7,3h[16:1]/7h[16:1],
{8}8/2,,8/2h[8:1],,6/2,2,6/2,,2h[8:1]/4,,2/4,2,
{24}1/2,8,7,6,5,,3/4,,3/4,,3/4,,
{8}2b/5b-1[8:1],,5/2-4[8:1],2,8-6[8:1],8,1b,,7-3[8:1]/1,7,5>1[8:1],5,7<5[8:1],7,8,1,
{8}2b-6[8:1],,2/8<6[8:1],8,4>2[8:1],4,8b,,2/8-4[8:1],8,3>7[8:1],3,5p7[8:1],5,4,3,
{8}2b/6b-2[8:1],,3-5[8:1]/6,3,1-5[8:1],1,3b-7[8:1],,3/7,6,5-1[8:1],5,1V73[8:1],2,3,4,
{8}5b-3[8:1],,5/7<5[8:1],7,1>3[8:1],1,8b,,
{16}4/8,,,3/5,,,1/7,,
{24}1/7h[16:1],2,3,4/7h[16:1],,,8/2h[16:1],7,6,5/2h[16:1],,,
{8}1b/8b,,2h[8:3]/8,3,5,8,2/6,,2h[8:3]/8,7,6,5,4/6h[8:3],3,2,1,
{8}B4f,,7h[8:3]/1,6,4,1,7/3,,7h[8:3]/1,2,3,4,5/3h[8:3],6,7,8,
{8}A5/B5f,,2h[8:3]/8,3,5,7,1/5,,2h[8:3]/8,7,6,5,4/6h[8:3],3,2,1,
{8}A4/B4f/E5,,7h[8:3]/1,6,4,2,4/8,,7h[8:3]/1,2,3,4,
{16}5/7,4/7,3/7,,2/4,2/5,2/6,,
{8}A4/B4f/E5/E4,,2h[8:1]/1,3,2h[8:1]/4,6,1/7,,2h[8:1]/8,6,1/7h[8:1],3,2h[16:1]/8h[16:1],3/4,1/7,5/6,
{8}E3/E4/B2/B3f/B4,,7h[8:1]/8,6,7h[8:1]/5,3,8/2,,7h[8:1]/1,3,8/2h[8:1],6,7h[16:1]/1h[16:1],6/5,8/2,4/3,
{8}E7/E6/B7/B6f/B5/A6,,2h[8:1]/1,7,2h[8:1]/4,6,1/7,,2h[8:1]/8,5,1/7h[8:1],4,2h[16:1]/8h[16:1],3/5,1/7,4/6,
{8}E3/E4/B2/B3f/B4/A3/D4,,7h[8:1]/8,2,7h[8:1]/5,3,8/2,,7h[8:1]/1,4,8/2h[8:1],5,7h[16:1]/1h[16:1],6/4,8/2,5/3,
{8}E7/E6/B7/B6f/B5/A6/D6/D7/1b-4[8:1],2/8,1,
{32}D6,A6,D7,A7,
{8}D8/E8/A8f,3/5,2>5[8:1]/6,,1/2,8-4[8:1],6/7,
{16}8/2,2,2-8[8:1],,7-3[8:1]/3,,2,,7,,
{32}4x-8[8:1],5,6,7,8,1,2,3,
{16}4b/5b,,
{32}A7,B7,C,B3,
{16}2b-5[8:1],,5,5,2-6[8:1],,6,6,2,,
{32}7<4[8:1],8,1,2,
{16}3,,7/1bh[8:1],,,3/1bh[8:1],,,7/1bh[8:1],,,,
{16}7<4[8:1],3,6,,7/8,,
{32}D4,A3,D3,A2,
{16}D2/E2/A1f/7-4[8:1],,4,4,7-3[8:1],,3,3,7,,2V46[4:1],,1,,2/8,8,8-4[8:1],,1,,2/8<5[8:1],,3,3,
{16}8,,4,,2>5[8:1]/6,,,,
{24}1/2-6[8:1],8,7,
{16}6,,2/8>7[4:1],,,,4/8,,,,8>4[2:1],,1/7,,4b,,5b,,6b,,7b,,
{16}8b-4[8:1],,8,,8,,2>5[8:1],2,1v6[8:1],,2,,1,,3,4,
{32}2h[8:1],,,,7,6,5,4,
{16}2b,,7<4[8:1],7,8v3[8:1],,7,,8,,7h[8:1],,
{16}5,,4/6,,7/3,,2,8hb[8:1]/2,,4,8bh[8:1]/4,,2b>5[8:1],,1,8,2,,6,,7,,8bh[8:1]/E4,,,2bh[8:1]/E6,,,6bh[8:1]/Cf,,,,
{16}7-3[8:1],8,7,,2-4[16:1],,,1-5[16:1]/2,,,1/8,,7b-4[8:1],,6,5,7-1[8:1],,2h[8:1],,7<5[8:1],,3,3,7<4[8:1],,2,2,7<3[8:1],,1,1,
{16}7,,
{32}1x,8,7,6,
{16}5/1,,,4/6,4/6,,2/8,,3/4,,C,,
{32}E8/E4,B3,B7,B2,B6,B1,B5,E1,
{16}E5f,,E7/E3/D7/D3,,1/8,,2/7,,3/6,,4/5,,
{16}3b/7b,,1,,4/6,,8,8/Cf,,2,2/Cf,,6,6/Cf,4,4,2b/6b,,8,,5/3,,1,1/Cf,,7,7/Cf,,3,3/Cf,5,5,2b/6b,,4,,1/7,,5,5/Cf,,3,3/Cf,,7,7/Cf,1,1,3b/7b,,5,,2/8,,4,4x/Cf,4,4,Cf/6x,6,6,Cf/2x,2,2,Cf/8bx,,,,8,,,,8,,,,8,,1,,
(180)
{8}2/7,,2/7,,2/7,,2/7,3,
(175)
{16}4/5,,7,5/6,,,1/8,,45,,2,3/4,,,1/8,,4w8[87.5#16:1]/5w1b[87.5#16:1],,,,,,,,,,,,,,,,2b/7b,2,2,2,
{24}7<1[16:3],6,5,
{16}4h[8:1],,7-3[16:1],,,7<4[16:1],8,,7,8,1h[8:1],,
{16},,6xV47[8:1],4,4,4,6x<7>8>1[8:1],2,2,2,6x,4,4,4,2b/6b,,
{16}8,8,8<5[8:1],8,8,8>3[8:1],8,1,,8-4[16:1],7,,8,1,1h[8:1],,,,5-1[8:1],5,5,5,7,7,7<5[16:1]*>3[16:1],7,7,7,7,,4bh[8:1],,8,8,8-4[8:1],8,8,8,8<5[8:1],,2>5[8:1],,8,,2,,8hb[8:1],,2,2,2-6b[8:1],2,2,2,2>5b[8:1],,8<5b[8:1],,2,,8,,1hb[8:1],,,6h[8:1]/B2,,,4h[8:1]/B8,,Chf[8:1],,,2h[8:1]/B6,,,8h[8:1]/B4,,1,1,1,1,3/7,,,,
{12}1/5,1/5,1/5,3V52[8:1]/7V16[8:1],3/7,3/7,
{16}3-7[16:1]/7-3[16:1],,,,,,
{24}8x/4x,1x/5x,2x/6x,
{16}3xh[8:1]/7xh[8:1],,,2h[8:1]/6h[8:1],,,1/5,,
{12}4<7[8:1]/8>3[8:1],4/8,4/8,,,,
{16}4z8[8:1]/8z4[8:1],,,,,,,,2h[16:3]/6h[16:3],,,,2x-6V48[8:3]/6x-2[8:1],2/6,2/6,,,,,1h[16:1],,,7h[8:1],,
{12}1bs5[16:3],2/6,3b/5b,
{16}1>2>3<4<5<6<7>8b[16:3]/8,,,,,,,,1b-5[8:1],1,1,1,1,,
{24}6,7,8,2-6[8:1],3,4,6,7,8,
{16}1/2,,7,7,,4,5,,3/4h[8:1],,
{24}3,2,1,7-3[8:1],6,5,3,2,1,
{16}7/8,,2,2,,5,4,,7-4[16:1],,,5-1[16:1],,,8b,,7-3[16:1],,,2-5[16:1],,,1b,,
{12}1x,2b/8b,3b/7b,
{16}4b/6b,,,,
{24}3/7,,3/7,,3/7,,1/5,2/6,3/7,4/8,1/5,2/6,
(180)
{16}3b/7b,,,,2v5[16:1],1,3,1,2b,,6,4,7-4[16:1],3,8,2,7b,,1<6[16:1],5,2,,3h[8:1],,5b,,8,7,1-5[16:1],8,2,1,3b,,3,,
{24}7-3[16:1],6,5,
{16}3/4,2,1b,,1,,7<4[16:1],8,8,1,7b,,1,,1-3[16:1],8,8-4[16:1],7,1<2[4:1],,8,,1,,,,8b,,,,7v4[16:1],8,6,8,7b,,3,5,2-5[16:1],6,1,7,2b,,8>3[16:1],4,7,5,6h[8:1],,4b,,1,2,8-4[16:1],1,7,8,6b,,6,,
{24}2-6[16:1],3,4,
{16}5/6,7,8b,,8,,2>5[16:1],1,3,8,2b-6[16:1],,6,6,2b-5[16:1],,8,8,2b,,8,2,8-4[16:1],,3,,3b,,5,,8>3[16:1],7,1,6,8b,,7h[8:1],,5,,6,5,7v4[8:1],1,1,1,7,,1b,,3-8[8:1],5,5,5,3,,5b,,6<1[8:1],,5/7,,
{24}2,3,4,
{16}5,,3/7,,5,6,4/5,,2,,2-6[8:1],8,8,8,2,,4b,,5h[8:1],3,3,,5h[8:1],3,3,,
{24}5h[8:1]/3,2,1,8,7,6,
{16}5/1,,3/7,,3v6[8:1],5,4,5,3,,7,,8v5[8:1],2,1,2,8,3,3,,4/6,,4/6,,2/8,3/7,4/6,,3bh[4:1]/7b,,5,6,
{32}7h[4:1],4,5,6,,8,1,2,
{16}3bV52[8:1],,7,6,5h[16:3]/3>5[16:3],,,1h[16:3],,,,,
{24}4,3,2,1,8,7,
{16}6/4,,2/8,,1b,1b,
{24}1bs5[16:1]*z5[16:1],2/8,3/7,
{16}4/6,,,,7xv4[16:1],8,6,8,7b,,3,5,2-5[16:1],6,1,7,2b,,8>3[16:1],4,7,,6h[8:1],,4b,,1,2,8-4[16:1],1,7,8,6b,,6,,
{24}2-6[16:1],3,4,
{16}6/5,7,8b,,8,,2>5[16:1],1,1,8,2b,,8,,8-6[16:1],1,1-5[16:1],2,8>7[4:1],,1,,8,,,,1b,,,,2v5[16:1],1,3,1,2b,,6,4,7-4[16:1],3,8,2,7b,,1<6[16:1],5,2,4,3h[8:1],,5b,,8,7,1-5[16:1],8,2,1,3b,,3,,
{24}7-3[16:1],6,5,
{16}4/3,2,1b,,1,,7<4[16:1],8,6,1,7b-3[16:1],,3,3,7b-4[16:1],,1,1,7b,,1,7,1-5[16:1],,6,,6b,,4,,1<6[16:1],2,8,3,1b,,2h[8:1],,4,,3,4,2v5[8:1],8,8,8,2,,8b,,6-1[8:1],4,4,4,6,,4b,,3>8[8:1],,4/2,,
{24}7,6,5,
{16}4,,6/2,,4,3,5/4,,7,,7-3[8:1],1,1,1,7,,5b,,4h[8:1],6,6,,4h[8:1],6,6,,
{24}4h[8:1]/6,7,8,1,2,3,
{16}4/8,,6/2,,6v3[8:1],4,5,4,6,,2,,1v4[8:1],7,8,7,1,6,6,,5/3,,5/3,,7/1,6/2,5/3,,6bh[4:1]/2b,,2,,
{32}2h[4:1],5,4,3,,1,8,7,
{16}6b-2[8:1],,3,3,6,4,4,,
{24}1/5-1V73[4:1],6,7,8,1,2,
{16}3/5,,4,4,4,,7/1,,8,8,
{24}8,7/1,6/2,
{16}5/3>5[4:15],,,,,,,,,,,,,,,,,,,,,,,,,,,,4,4,4,4,,,,,,,,,,,,,,,,,,,,,,,,,,,8<5b[16:1],,,,,,,,,,,,,,,,,,,,,,,,,,,,,,,,,,,,,,,,,,,,,,,,,,,,,,,,,,,,,,,,,,,,,,
{16}2qq5[4:3]/7h[2:1],,,,,,,,,,,,,,,,6h[4:3],,,,,,,,,,,,,,,,3h[2:1]/4pp8[4:3],,,,,,,,,,,,,,,,2h[4:3],,,,,,,,,,,,,,,,1h[4:3]/7pp4[4:3],,,,,,,,,,,,,,,,2h[2:1],,,,,,,,3h[2:1],,,,,,,,4h[4:3],,,,,,,,,,,,7qq3[1:1],,,,1h[4:3],,,,,,,,,,,,,,,,1h[2:1],,,,,,4,,4-6[8:1],,,,,,,,2h[2:1],,,,,,5,,5-7[8:1],,,,,,3,,3h[2:1],,,,,,6,,6-8[8:1],,,,,,,,4h[2:1],,,,,,7,,7-1[8:1],,,,,,5,,5h[2:1],,,,,,8,,8-2[8:1],,,,,,,,6h[2:1],,,,,,1,,1-3[8:1],,,,,,7,,7h[2:1],,,,,,2,,2-4[8:1],,,,,,,,8h[2:1],,,,,,3,,3-5[8:1],,,,,,1,,1bh[4:3]/7,,,7,,,7,,7,,,7,,,4/6,,2/8h[4:3],,,2,,,2,,2,,,2,,,3/5,,1/7h[4:3],,,1,,,1,,1,,,1,,,3/5,,2h[4:3]/8,,,8,,,8,,8,,,8,,,4/6,,3/5,,3h[8:3]/5,,,,5,,5h[8:3],,,7,,,7,,4/6,,4/6h[8:3],,,,4,,4h[8:3],,,2,,,2,,4/5,,3,,3,4,,5,4h[8:1],,,2,,,2,,4/5,,6,,6,5,,4,5s1b[8:1],,3-7[8:1],,,,,,6,,,8,6,,1,,6/2,,7,8,7h[4:1],,1,,3,,,5,3,,6,,3/7,,2,1,2h[4:1],,1,8,7,,,5,7,,4,,3/7,,8,1,8-4[8:1],,2,,3,,,1,2>5[8:1]/6,,2,,8<5[8:1],,1,,8/3,2,1,8,4b-7[16:1],,,1,2b-5[16:1],,8,,8b,,4,,6,7,8,1,5b-2[16:1],,,8,7b-4[16:1],,1,,1b,,5,,3/7,2/6,1/5,,8,4,1,5,2,6,3,7,4,8,4,5,3,6,2,7,
{24}1,8,1,8,1,8,1,8,1,8,1,8,1,8,1,8,1,8,1,8,1,8,1,8,
(190)
{1}1b,,
(200)
{1},,
(210)
{16}1,,,,1,,,,1,,,,1,,,,1,,,,1,,,,1,,,,1,,,,2/6,,3/4,,5/6,,1/7,,2/8,,3/5,,1/7,,4/6,,1bs5[4:1]
,,,,7-3b[8:1],,,,,,,,1,1,1,1,1b-6[8:1],,,6,1>4[8:1],,7,,1x-5[8:1],8,,8,1,,6,,
{32}8x-4V61[4:1],7,6,5,,2,3,4,8b,,,,2,,,,
{16}2b,,3,4,3,,2/5,,8b-3[8:1]/1x,,,3,8<5[8:1],,2,,8x-4[8:1],1,,1,8,,3,,
{32}1x-5V38[4:1],2,3,4,,7,6,5,1b,,,,7,,,,
{16}7b,,6,5,6,,7/4,,2b-5[16:1],,,8b-4[16:1],,,1,,3hx[16:3],,,6b-1[16:1],,,4b-8[16:1],,3x,,,7,,,6/4,,3x,4,2,,7,8,6,,1b-6[8:1],,,6,1>4[8:1],,7,,1x-5[8:1],8,,8,1,,6,,
{24}2b/8b,3/7,4/6,
{16}5,,2b/8b,,6,,3x/7x,,2,1,1,8,
{24}5,6,4,
{16}5b-2[8:1],,,2,5<8[8:1],,3,,5x-1[8:1],4,,4,5,,2,,
{32}4x-8V62[4:1],3,2,1,,7,6,5,4b,,,,3,,,,
{16}3b,,8,6,7,,4/2,,4b-7[8:1]/5,,,7,4>1[8:1],,6,,4x-8[8:1],5,,5,4,,7,,
{32}5x-1V37[4:1],6,7,8,,2,3,4,5b,,,,6,,,,
{16}6b,,1,3,2,,7/5,,6b-1[16:1],,,4b-8[16:1],,,5,,7hx[8:1],,,2b-5[16:1],,,8b-4[16:1],,7x,,,3,,,2/8,,7x,5,6,,1,3,2,,5b/4,,4b/5,,3/4b,,5b/6,,2/4b,,5b/7,,1/3b,,8/6b,,
{32}2b,3,4,5,,8b,7,6,5,4,,,1b,2,3,4,5x,,7b,8,1,2,3,4,
{16}5b/Cf,,,,3x,4,2,,5/6,,8,1,8x-4[8:1],,3,,7/8,,6,,
{24}3x,5,3,
{16}4-8[8:1],,8V62[4:1],,1,,2x-5[8:1],,,,4,,
{24}3,6,4,
{16}6x,5,7,,3/4,,1,8,1x-5[8:1],,6,,1/2,,3,,
{24}6x,4,6,
{16}5-1[16:1],6,5,7-4[16:1],5,,,7,,,
{24}2b,3,4,5,6,7,
{16}8x/2b>5[16:1],,,8b-4[16:1],,,1hx[8:1],,,,,7b<4[16:1],,,1b-5[16:1],,2x,,,8,,,8,,2x/6x,,3/4,,1/8,,5/7,,8b-3[8:1],,,3,8<5[8:1],,2,,8x-4[8:1],1,,1,8,,3,,
{24}7b/1b,6/2,5/3,
{16}4,,7b/1b,,3,,6x/2x,,7,8,8,1,
{24}4,3,5,
{16}4b<7[8:1],,8,,
{24}8-4[8:1],1,2,
{16}3,,8x/1x,,2,,2/6,,3/5,,
{24}6x,5,7,
{16}6-2[8:1],,8<5[8:1],,6,,8,,1,,3/4,,
{24}5,4,6,
{16}5b>2[8:1],,1,,
{24}1-5[8:1],8,7,
{16}6,,1x/8x,,7,,7/3,,4/6,,
{24}3x,4,2,
{16}3-7[8:1],,1>4[8:1],,3,,1x,,8,,5/6-3[8:1],4,3,2,1b-4[16:1],,,8b-5[16:1],,,2,,2hx[8:1],,,3b-6[16:1],,,2b-7[16:1],,1x,,,5,,,3/7,,1x/5x,,,1,,,1,,1x,3,1,8,2,4,2,8,3x,5,3,8,4,6,4,8,
{32}7b/1x,6,5,4,,1b,2,3,4,5,,,7b,6,5,4,3x,,1b,8,7,6,5,4,
{16}3b/Cf,,
{24}1,8,1,
{16}8b-4[8:1],,8,,3-8[8:1],,3,,7x,,7h[8:1],,5,6,4,5,3x>8[8:1],,
{24}4/6,,,3/8,7,6,
{16}5,,2x/6x,,4/7,,1/2,,3/7,,
{24}5x,6,4,
{16}5,,2/8-4[8:1],,2>5[8:1],,8x,,2,,6,,
{24}6,7,8,
{16}1x/2xv5[8:1],,3,4,2<4[24:5],,8,,8hx[4:1],,,,
{24}3,2,1,8,7,6,
{16}5b-2[16:1],,,8b-4[16:1],,,1,,1b-5[16:1],,,4b<7[16:1],,,1,,2x,8,1,3,1,5,2,6,3x,7,4,8,2,2,2,2,2b>5[8:1],,1,8,2,,6h[8:1],,8x,7,1,8,3>8[8:1]/5<8[8:1],,4,,3x/5x,,,,2/6,,4,5,,3,4,,
{24}2,3,2,3,2,3,
{16}1b-6[8:1],,,6,1>4[8:1],,4,,
{24}4x-8V26[2:1]/1x,5,6,
{16}7,,7,,6,,5x,,,5,,,5,,5x,7,6,8,7h[8:1],,1,,8b-3[8:1]/2x,,,3,8<5[8:1],,5,,
{24}5x-1V73[2:1]/8x,4,3,
{16}2,,2,,3,,4x,,,4,,,4h[16:1],2,,3h[16:1],1,,2,1,1,8,2b-4[16:1],,,8b-6[16:1],,,1,,1b-5[16:1],,,7b<4[16:1],,,2,,3b>8[16:1],,,7b-3[16:1],,,3,,2b>5[16:1],,,6b-2[16:1],,,7,,8b,,3/4b,,1/8b,,5/6b,,2/4b,,1/8b,,5/7b,,4b/5,,
{32}3b,2,1,8,,5b,6,7,8,1,,,4b,3,2,1,8x,,6b,5,4,3,2,1,
{16}8b/Cf,,,,
{16}6x,5,7,,4/3,,1,8,1x-5[8:1],,6,,2/1,,3,,
{24}6x,4,6,
{16}5-1[8:1],,1V37[4:1],,8,,7x-4b[8:1],,,,5,,
{24}6,3,5,
{16}3x,4,2,,6/5,,8,1,8x-4[8:1],,3,,8/7,,6,,
{24}3x,5,3,
{16}4-8b[16:1],3,4,2>5[16:1],4,,,2,,,
{24}7b,6,5,4,3,2,
{16}1x/7b<4b[16:1],,,1b-5[16:1],,,8h[8:1],,,,,2b>5b[16:1],,,8b-4[16:1],,7x,,,1,,,1,,7x/3x,,6/5,,8/1,,4/2,,1b-6[8:1],,,6,1>4[8:1],,7,,1x-5b[8:1],8,,8,1,,6,,
{24}2b/8b,3/7,4/6,
{16}5,,2b/8b,,6,,3x/7x,,2,1,1,8,
{24}5,6,4,
{16}8b-3[8:1],,,3,8<5[8:1],,5,,
{24}5x-1V73b[2:1]/8x,4,3,
{16}2,,2,,3,,4x,,,4,,,4,,4x,2,3,1,2h[8:1],,8,,1b-6[8:1]/7x,,,6,1>4[8:1],,4,,
{24}4x-8V26b[2:1]/1x,5,6,
{16}7,,7,,6,,5x,,,5,,,5h[16:1],7,,6h[16:1],8,,7,8,8,1,7b-5[16:1],,,1b-3b[16:1],,,8,,8b-4b[16:1],,,2b>5[16:1],,,7,,6b<1b[16:1],,,2b-6[16:1],,,6,,7b<4b[16:1],,,3b-7[16:1],,,2,,1b,,6/5b,,8/1b,,4/3b,,7/5b,,8/1b,,4/2b,,5b/4,,
{32}6b,7,8,1,,4b,3,2,1,8,,,5b,6,7,8,1,,3b,4,5,6,7,8,
{16}1b/Cf,,A6/A3/A4/A5/D6/D5/D4/E5/E6/E4/B4/B3/B5/B6,,
{16}2qq5[4:3]/7h[4:3],,,,,,,,,,,,,,7,,7b,,3,2b/4b,,6,5b/7b,,1,,2/8,,3/7,,4/6,,3b/7b,,2,3b/1b,,7,6b/8b,,4,5,4,,6,5,6,,4b/5b,,3,4b/2b,,6,5b/7b,,3,4,3,,5,4,5,,
(220)
{16}6qq1b[4:3]/3h[4:3],,,,,,,,,,,,,,3,,3b,,7,6b/8b,,2,1b/3b,,5,,6/4,,7/3,,8/2,,7b/3b,,6,7b/5b,,3,2b/4b,,8,1,8,,2,1,2,,8b/1b,,7,8b/6b,,2,1b/3b,,7,8,7,,1,8,1,8,
(230)
{8}1b>4[8:1],8,7,6<1[8:1],5,4,3<6[8:1],2,1h[16:1],1h[16:1],1b,3/7,5/6,3/4,1/8,2/7,
{8}8b<5[8:1],1,2,3>8[8:1],4,5,6>3[8:1],7,8h[16:1],8h[16:1],8b,6/2,4/3,6/5,8/1,7/2,
{16}3x,4,3,6x,5,6,2x,2,7x,8,7,2x,1,2,6x,6,2x,4,3,7x,5,6,1x,8,1x,3,2,8x,6,7,4x,5,
{12}4x,4,8,3,3,7,2,2,6,1,1,5,4/8,4/8,4/8,2q4[8:3]/6q8[8:3],2/6,2/6,,,,,,,
{16}2bv5[8:1]/6b-1[8:1],,1,,2/6,,,,4,8,3,7,2,6,1,5,8,7,5,6,4,5,3,4,2,3,1,8,2,7,3,6,
{16}4/8-4[16:1],,,2-5[16:1]/8,,,2/6,,7,8,6,,7v4[8:1],1,1,1,7,,3,,3/5,,5,,
{16}2,1,3,,2v5[8:1],8,8,8,2,,6,,6/4,,4,,6,5,7,,1,8,1,,
{12}3x,4,2,8x,6,7,1x,3,2,6x,5,7,
{24}1,2,3,5,6,7,2-6[8:1],3,4,6,7,8,
{16}1/2,,8,,8h[8:1],,
{32}5,4,3,2,
{12}1/7b,7,7,5b,5,5,3b,3,3,
{32}8x/1x,7,6,5,4h[8:1],,,,
{16}2,4,3,5,4,6,5,7,2,1,3,8,4,7,5,6,1,3,2,2,7,5,6,6,1,8,1,1,6,5,7,7,
{16}1,1,4,3,5,4,6,5,7,6,8,1,7,2,6,3,
{16}5/1-5[16:1],,,7-4[16:1]/1,,,7/3,,3,,3,,5/6,,8,,
{12}2,4,2,6,4,6,1,4,1,7,4,7,
{16}2/8-4[8:1],2,2,2,8,,3,,3>8[8:1]/5,5,5,5,3,7,6,5,
{12}4b,,6,5b/7b,,3,2b/4b,,6,4b/7b,,3,
{32}2b/5b,6,7,8,,4b,3,2,1,,,,
{24}1/8,,,1bs5[8:1]/8bz4[8:1],2/7,3/6,4/5,,,,,,,,,
{8}2-5[8:1]/6,2,2/6-1[8:1],6,3-8[8:1]/6,3,3/7-4[8:1],7,1-5[8:1]/7,1,1/5,
{16}6,7,8/2-5[8:1],,3,4,2,,6,,
{24}7<4[8:1]/4h[8:1],8,1,2,,,4-8[8:1]/7,3,2,1,,,1,,,
{16}1,2,3,4,5,6,
{8}7-3[8:1]/1,7,1-5[8:1]/7,1,1/6-2[8:1],6,4/6,4,4/5,1/2,4/5,7/8,
{16}5/6,,,4/5,,,3/4,,
{12}3/4,5,6,7/1,2,3,4/5,6,7,8/1,1/8,1/8,
{24}2/7,,,3,4,3,5,,,1/8,,,6,5,6,4,,,1/8,,,4,5,3,
{16}4b,,2,2/4b,,6,4b/6,,8b/Cf,,2/6,,8,8,8,8,
{16}2,4,3,5,4,6,5,7,1,8,2,7,3,6,4,5,
{16}7b,5,7,5,1b,5,1,5,3b,5,3,5,
{32}7,8,1,2,3,4,
{16}5,7,7,5,6,2,2,4,3,5,4,6,3,5,,4/5,,
{32}1,2,3,4,,7,6,5,4,,,,
{16}2/6,,2/6,,3/4,,1/7,,4/6,,
{16}3,5,1,7,4,6,2,8,1-5[8:1],3,7,4,1x,,6,,
{16}6,4,8,2,5,3,7,1,8-4[8:1],6,2,5,8x,,3,,
{16}7,6,2,1,6,5,1,8,4,5,1,2,5,6,2,3,
{32}8/7,6,5,4,,2/1,3,4,5,,,,8,1,8,1,
{24}8,7,6,5,4,3,2hb[8:1]/6hb[8:1],,,
{32},1b/5b,4b/8b,3b/7b,
{1}2bpp3>6pp3[4:33]`6bpp7<2pp7b[4:33],,,,,,,,
{4},,,4h[4:37]/5h[4:37],,,,,,,,,,,,,,,,,,,,,,,,,,,,,,,,,,,,,
(120){1},,,
{8},,,,,
(200)
{8}3h[1:1]/5,,,,,,,,B1/B2,,,,,,,,,,,,,,,,5h[1:1],,,,,,,,4h[1:1],,,,,,,,E3,,,,,,,,,,,,,,,,,,,,,,,,6h[1:1]/4,,,,,,,,B7/B8,,,,,,,,,,,,,,,,4h[1:1],,,,,,,,5h[1:1],,,,,,,,6h[1:1],,,,,,,,7h[1:1],,,,,,,,8,,6,,5,,4,,3/6h[1:1],,,,,,,,3h[1:1],,,,,,,,4h[1:1],,,,,,,,5h[1:1],,6,,7,,8,,Ch[1:1],,,,,,,,B7/B3,,1,,1,,2/8,,A7/A3,,5,,5,,4/6,,B3/A3/B7/A7,,A1/B1/B5/A5,,C,,,,
{8}3/7>5[1:1],,,,,,,,7,,8h[4:3],,,,,,7<1[1:1],,,,,,,,4h[1:1],,,,,,,,8b-4[4:5],,,,,,4,,3,,3,,2,,2,,5/1h[1:2],,,,,,,,5h[1:1],,,,,,,,
{32},2/6,3/7,4/8,
{8}1p8[8:11]/5p4[8:11],,,,,,,,,,,,,,,
{8}4>5[4:7]/8,,,,,,,,5,,,,,,,,4-8[4:3],,,,1,,,,1>4[4:2],,,,7,,6,,5h[4:1],,4h[4:1],,3h[4:1],,5>1b[2:1],,5h[2:1],,,,,,,,
{24}7b/8bV26[4:3],1/6,2/5,
{8}3/4,,,5,,6V48[4:3],,7h[4:3],,,,,,,,1V74[4:3]/7,,6,,5,,4V26[4:3],,5h[4:3],,,,,,,,8-4[2:1]/4,,3,,2,,1V75V31[4:3],,5h[4:3],,,,,,,,
{4}1-5[25#64:1]/5,,,,,,,1?-5b[8:1],
{8}Cf/7V53V17[4:7],,,,,,,,,,,,,,,,6V42V86[4:7]*V42V86[4:7],,,,,,,,,,,,,,,,5V31V75b[4:7]*V31V75b[4:7],,,,,,,,,,,,,,,,1V75[4:5]*V35b[4:5],,,,,,,,,,,,,,,,
{8}2>2[4:7]/Cf,,,,,,,,,,,,,,,,3<3[4:7]*<3[4:7],,,,2,,,,4,,4,,4,,,,4<4b[4:7]*<4b[4:7],,,,,,,,,,,,,,,,5w1b[2:1]*w1b[2:1],,,,,,,,2>5[2:1]/8<5[2:1],,,,,,,,
{8}4,4,5,3,3,5h[8:1],
{16}8,1,2,3,5,,5,,4,,6,,6,,4h[8:1],,1,8,7,6,1-5[8:1],,1,,8-6[8:1],,8,,3,,3h[8:1],,4,5,6,7,8-4[8:1],,8,,1-3[8:1],,1,,6,,6h[8:1],,5,4,3,2,
{8}1-4[8:1]/8,,1/8,7<4[8:1],,
{24}4,3,2,
{16}1b,,,,
{8}8-5[8:1]/1,,8/1,2>5[8:1],,
{24}5,6,7,
{16}8b,,,,
{8}2-5[8:1]/8,,2/8,6-1[8:1],,6/4,
{16}2,,2,,{12}8,6,7,1,3,2,7,5,6,2,4,3,
{16}1/8-4[8:1],,,,8/1,,2,,3/5h[4:1],,,,6,,7,,1-5[8:1]/8,,,,1/8,,7,,6/4h[4:1],,,,3,,2,,
{16}1/2,,3/4,,5/6,,7/8,,
{24}1,2,3,7,6,5,2,3,4,8,7,6,
{16}1bh[16:1],,5,,2h[8:1],,6,,3h[8:1],,7,,4h[8:1],,8,,
{8}5<8[8:1]/1,4,3,2>5[8:1],1,8,7,6,1>4[8:1]/5,8,7,6<1[8:1],5,4,3,2,
{16}1/5,,3,4,2h[8:1],,6,5,7h[8:1],,1,5,
{32}1,8,7,6,5,4,3,2,
{4}1bs5[4:1]/5b,,
{8}6-2b[16:1],
{16}8,8h[8:1],,,,,
{16}2bx/7bx<4[8:1],,,,7x/8x,,3x,3,,5x,5,,4x/6x,,3/7,,2,1,2,,8,1,8,,3/7,,6,5,5,4,6,,
{16}1x-5[8:1]/7x,,,,1x/8x,,7x,7,,5x,5,,4x,6,4,,3/5,,4,2,4x-8[8:1],,1-3[8:1],,4x-6[8:1],,1-6[8:1],,4x,,1x,,
{16}8bx>3[8:1],,,,7x/8x,,5x,5,,3x,3,,4x/5x,,6/5,,
{24}7x>2[8:1],6,5,
{16}4,,2x/7x,,3x,3,6x,5,5,4,6,,3,4,
{16}2xbq6[8:1],,,,1x/2x,,8x,8,,6x,6,,7x,8,6,1,5bx-3[8:1],,6,3,5x,,2,,
{16}2bx-6b[8:1],,
{24}4/2xh[8:1],5,6,
{16}7,,8x,8x,
{16}2bx>5[8:1],,,,2x/1x,,6x,6,,4x,4,,5x/3x,,6/2,,7,8,7,,1,8,1,,6/2,,3,4,4,5,3,,
{16}8x-4[8:1]/2x,,,,8x/1x,,2x,2,,4x,4,,5x,3,5,,6/4,,5,7,5x-1[8:1],,8-6[8:1],,5x-3[8:1],,8-3[8:1],,5x,,8x,,
{16}1bx<6[8:1],,,,2x/1x,,4x,4,,6x,6,,5x/4x,,3/4,,
{24}2x<7[8:1],3,4,
{16}5,,7x/2x,,6x,6,3x,4,4,5,3,,6,5,
{16}7bxp3[8:1],,,,8x/7x,,1x,1,,3x,3,,2x,1,3,8,4bx-6[8:1],,3,6,4x,,7,,
{16}7bx-3b[8:1],,
{24}5/7h[8:1],4,3,
{16}2,,1x,1x,
{16}5bx,,6,5,7x-5[8:1],,8,1,7x,,3x,3,4x,,1x,,
{16}1b/7b,,3,4,2x-4[8:1],,1,8,2x,,6x,6,5x,,8x,,
{32}2/1h[8:1],3,4,5,,,,,
{16}7/8,,7x,5,6,,3x/4,,2/6x,,7,,
{32}7x/8,6,5,4,,,,,1/2x,3,4,5,,,,,
{16}3b/7b,,1,8,2x>5[8:1],,2,,
{24}5x,6,7,
{16}8,,3x/7,,6,4,5x-8[8:1],,4,,3x/5,,1x,1x,
{16}7bx,,2,4,3x-8[8:1],,4,5,3x,,7x,7,1x-5[8:1],,6,4,1x,,,,3x/7x,,6,6h[8:1]/4x,,2,2h[8:1]/4x,,8b,,8,,
{16}1/7,,6,5,7x<4[8:1],,8,1,7x,,3,,
{32}1/5x,8,7,6,5,4,3,2,
{16}7b/1b,,5,5,2x-5[8:1],,1,8,2x,,6x,6,4x,,8x,,
{16}8b/2b,,6,5,7x-4[8:1],,8,1,7x,,3x,3,5x,,1x,,
{32}7/8h[8:1],6,5,4,,,,,
{16}2/1,,2x,4,3,,6x/5,,7/3x,,2,,
{32}2x/1,3,4,5,,,,,8/7x,6,5,4,,,,,
{16}6b/2b,,8,1,7x<4[8:1],,7,,
{24}4x,3,2,
{16}1,,6x/2,,3,5,4x-1[8:1],,5,,6x/4,,8x,8x,
{16}2bx,,7,5,6x-1[8:1],,5,4,6x,,2x,2,8x-4[8:1],,3,5,8x,,,,2x/6x,,3,3h[8:1]/5x,,7,7h[8:1]/5x,,1b,,1,,
{16}2x/8x,,,,
{32}3/8h[16:1],4,5b,,,,3/8h[16:1],4,5b,,,,3/8h[16:1],4,5b,,,,3/8h[16:1],4,5b,,,,
{16}2b/7bx<4[8:1],,8,,1,,2x<7[8:1],,3,,4,,5x>2[8:1],,6,,7,,8x,,1x/7x,,7,7,5,5,3,3,1,1,1,1,
{16}2bx/8bx,,3/4,,5/6,,7,8,7x-4[8:1],,4,,1x,,,,2/5x,,3x/6,,7x/4,,3,4,2x-7[8:1],,7,,4x,,,,1x/5b,,2/6x,,3x/7,,6,4,5x-2[8:1],,2x,,7x,,,,3x/8,,1x/4,,2/5x,,3,5,4x<7[8:1],,1x/2,,3x/4,,,,1/8,,2,,3x/5x,,7/8,1/6,2/5<4[4:1],,3,,5/8x-4b[8:1],,,,8b,,,,1h[8:1]/3h[8:1],,,2,4,,4/5,,6h[8:1]/8h[8:1],,,,
{16}7b/2b,,6/5,,4/3,,2,1,2x-5[8:1],,5,,8x,,,,7/4x,,6x/3,,2x/5,,6,5,7x-2[8:1],,2,,5x,,,,8x/4b,,7/3x,,6x/2,,3,5,4x-7[8:1],,7x,,2x,,,,6x/1,,8x/5,,7/4x,,6,4,5x>2[8:1],,8x/7,,6x/5,,,,8/1,,7,,6x/4x,,2/1,8/3,7/4>5[4:1],,6,,4/1x-5b[8:1],,,,1b,,,,8h[8:1]/6h[8:1],,,7,5,,5/4,,3h[8:1]/1h[8:1],,,,
{32}8b,7,6,5,,,7b,6,5,4,,,6x,,6,,1b,2,3,4,,,2b,3,4,5,,,3x,,3,,
{24}8,7,6,3,2,1,8,7,6,3,2,1,8,7,6,3,2,1,8,7,6,3,2,1,
{16}7<7[2:1]/8,6>7b[16:7],5>7[8:3],4>7b[16:5],A7,A6,A5,A4,7/A3,6/A2,5/A1,4/A8,3w7b[4:3]/A7,,,,A3f,,,,,,,,,,,,,,,,1>4b[2:1]/5<8b[2:1],,,,,,,,,,,,,,,,5V31b[2:1]/1V75b[2:1],,,,,,,,,,,,,,,,1s5b[2:1]/5,,,,,,,,,,,,
{16}8hb[4:1],,,,5s1b[2:1],,,,,,,,,,,,,,,,8<5b[2:1]/4>1b[2:1],,,,,,,,,,,,,,,,4V68b[2:1]/8V24b[2:1],,,,,,,,,,,,,,,,8z4b[2:1]/4,,,,,,,,,,,,
{16}1bh[4:1],,,,4z8b[2:1],,,,,,,,,,,,,,,,8qq1b[2:1]/4qq5b[2:1],,,,,,,,,,,,,,,,5p4b[2:1]/1p8b[2:1],,,,,,,,,,,,,,,,3-8b[4:1]/7-4b[4:1],,,,,,,,,,,,
{16}1<5[4:1],,,,1/5>1b[2:1],,,,,,,,,,,,,,,,1pp8b[2:1]/5pp4b[2:1],,,,,,,,,,,,,,,,4q5b[2:1]/8q1b[2:1],,,,,,,,,,,,,,,,8<4b[4:1]/4,,,3,,,2,,2h[4:1],,,,1,,,,
(190)
{24}1bxV73-5V37-1b[4:15]/8bxV26-4V62-8b[4:15],2bx/7bx,3bx/6bx,
{8}4bx/5bx,
{4},,,
(180){1},
(170),
(160),
{8}2/7,,2,3/4,,
{24}5,4,6,
{8}5,4/6,2/7,,7,5/6,,
{24}4,5,3,
{8}4,3/5,
{8}2/7,,2,3/4,,
{24}5,4,6,
{8}5,4/6,3/7,,7,5/6,,
{24}4,5,3,
{8}4,3/5,
{16}2/6,2,4,1,7,8,7,8,6,6,4,5,3,4,3,3,
{16}7b,7,5,8,2,1,2,1,3,3,5,4,6,5,6,6,4b,4,5,3,5,5,4,6,1,8,2,7,3,6,4,4,5b,5,3,3,5,5,3,3,7,8,6,1,5<1b[4:1],,5b,,5/1>1[4:3],,,,,,,,,,,,,,,,5b,5,7,7,3,3,5,5,1,4,1,4,2,8,2,6,4b,,3,5,3,,2,4,2,,1,3,1q5[8:1],,2/8,,5V31b[8:1]/1,6,7-3b[8:1],8,1b,,,,1,1,2,1,8,1,7,1,6<1[8:1],,,5,6,,4h[8:1],,2,4,2,4,3,4,3,4,2,4,5,4,2,4,5,4,2,4,3,4,2,4,3,4,
{48}3b,2x,1x,8x,7x,6x,
{16}5x,3,4,,2/5,,3,4,,3,4>5[2:1],,3,,2bqq5b[2:1],,,,,,,,,,,,,,,,
{16}3b,4,4,5,3,4,4,5,3,4,4,5,3,4,4,5,2x,3,3,4,2,3,3,4,2,3,3,4,2,3,3,4,2x,4,3,5,2,4,3,5,1x,7,6,7,3x,5,4,5,8x,3,2,3,1,5,1,5,
{24}1x,8,7,6,5,4,1x,8,7,6,5,4,
{16}1b,3,8,3,7,3,6,3,5,3,5,3,
{24}5,6,7,8,1,2,
{16}4,3,4,5,4,6,4,5,4,6,4,5,4,6,4,5,
{24}4x,3,2,1,8,7,6,5,4,3,2,1,8,7,6,5,4,3,
{16}1x,1,8,2,
{32}7x,6,5,4,3,2,1,8,7,6,5,4,3,2,1,8,
{16}7x,6,5,4,3,2,1,,6b,5,5,4,6,5,5,4,6,5,5,4,6,5,5,4,7x,6,6,5,7,6,6,5,7,6,6,5,7,6,6,5,7x,5,6,4,5,3,4,2,7,5,6,4,5,3,4,2,8x,1,7,2,6,3,5,4,7x,8,6,1,5,2,4,3,7x,8,7,8,6,6,1,8,2x,1,2,1,3,3,5,4,6x,5,6,5,7,7,1,8,3x,4,3,4,2,2,8,1,7x,8,5,4,7x,8,5,4,1x,2,5,4,1x,2,5,4,3x,4,2x,3,1x,2,8x,1,7x,8,6x,7,5x,6,4x,5,
{1}4xbw8[2:1],5xw1[2:1],3bxw7[2:1],6xw2[2:1],
{16}3/4-8[4:1],,,3,,,3,,2b,,,,1/8,,,,5-1[4:1]/6,,,6,,,6,,7b,,,,1/8,,,,1/8,,,2/7,,,3/6,,4b>2[16:1]/5b<7[16:1],,,,4/5,,,,1/8,,,2/7,,,3/6,,
{16}4bz8[8:1]/5bs1[8:1],4/5,4/5,4/5,C,,,,
(85)
{64}1x/2>6b[16:1],3<7[16:1],4<8b[16:1],5<1[16:1],,,2x/1,3,4,5,,,2x/1,3,4,5,
{32}2b,,,,2,3,2,3,2>5b[16:1],,,1/8-4[16:1],,,4-8b[16:1]/6,,2/8bh[32:3],,,,2b,,2b,,2-6[16:1],,,3/4V61b[32:3],,,2-4[16:1]/1,,4b,,,,1b,,2b,,8,,6,5/7,,3,2/4,,1b/8b,,1,8,,1,8,,2/7,,6,5,,6,5,,{64}4h[16:1]/7,8,1,2,3,,,,3,2,1,8,7/3,,,,
{32}2b/7b,,3,4,,3,4,,
{64}2/5h[16:1],1,8,7,
{32}6,,
{64}6,7,8,1,
{32}4/2,4,2xh[16:1],,4,2xh[16:1],,4,
{48}3,5,3,
{32}5h[16:1],,,4h[16:1]/6h[16:1],,,,5,5h[16:1],,,3h[16:1]/7h[16:1],,,5,5,5h[16:1],,,2h[16:1]/8h[16:1],,,,,
{32}3b/7b,,3,4,2>5[16:1],,8,1,8b-4b[16:1],,1,4,2,,6,,8V62[16:1]/4,,3,3,4,,2/5,,6/8b,,,1,1b,,
{64}1<5b[16:1]/2,8<4[16:1],7<3b[16:1],6>2[16:1],
{32}Cf,,,,,,1x,,
{64}1xs5b[16:1],8x,7x,6x,
{32},,B7/B3/A7f/A3f,,,,1x/5x,,,,
{48}4V61[16:1],3/5,2/6,
{32}1/7,,1b/7bv4b[16:1],,3,3,4,,2,2,7,,3,3/5,,2,2/6,,1x-5[64:3]/7x,,,,2-4[64:3]/6,,5,1,6<1b[16:1],,,2,5,,5x,,4/6,,,,3/8,8,2,2,4h[16:1],,,3h[16:1]/5h[16:1],,,4,4,4h[16:1],,,2h[16:1]/6h[16:1],,,,4,4h[16:1],,,1h[16:1]/7h[16:1],,,2h[16:1]/6h[16:1],,,3h[16:1]/5h[16:1],,,4w8[16:1]*w8[16:1],,4,,4bh[8:1],,,,,,,,2h[8:1]/6,,4,,8xw4[16:1]*w4[16:1],,8,,8xh[8:1],,,,,,,,2/6h[8:1],,8,,4z8[16:1]*z8[16:1],,3,,2h[8:1]/4h[8:1],,,,,,,,3h[8:1]/7,,1,,5s1[16:1]*s1[16:1],,6,,5h[8:1]/7h[8:1],,,,,,,,2/8,,3/7,,4/6-2[16:1]*-2[16:1],,2V84[8:1]*V84[8:1]/8,,4h[8:1]/6h[8:1],,,,,,,,3b,,3,,3-7[16:1]*-7[16:1]/5,,1/7V15[8:1]*V15[8:1],,5h[8:1]/3h[8:1],,,,,,,,6b,,6,,4/6,5,5,,3/4,,2,,3/4,,1,,3/4,,8,,3/4,,7,,5/6,,7/8,,1/2,,3/4,,5/6,,1/2,,B2hf[8:1]/B4hf[32:5]/B6hf[16:3]/B8hf[32:7]/Chf[4:1],,,,,,,,,,1,,,1,,,2/8,,
{48}2,3,4,
{32}7/5,7,5,5,7h[4:1],,8,,,8,,,
{96}8,1/6,2/5,3/4,,,
{32},,
{32}8b-5[16:1],,6,5,,5,4,,
{32}3x-7[16:1],,,2,,4,,6,
{32}3b-8[16:1],,6,5,,5,4,,3x,,,7,7,,
{48}5,4,5,
{32}4b-1[16:1],,2,1,,1,8,,
{32}7x-3[16:1],,,6,,8,,2,
{32}7b-4[16:1],,2,1,,1,8,,7x,,,3,3h[16:1],,5,5,
{32}8b>3[16:1],,6,5,,5,4,,
{32}3x-7[16:1],,,4,,5,,6,
{32}3b-8[16:1],,6,5,6,4,5,3,4x,,,7,7h[16:1],,1,1,
{32}4b<7[16:1],,2,1,,1,8,,
{32}7x-3[16:1],,,8,,1,,2,
{32}7b-4[16:1],,2,1,2,8,1,7,8x,,,2,2h[16:1],,4,2,
{32}Ch[8:1],,,,1h[8:1],,,,
{48}7,6,5,4,,,7/8,6,5,4,,,
{48}1/8p4[16:1],7,6,5,4,3,2/8,7,6,5,4,3,
{32}2/8,,,1,,,1,,
{48}1q5[16:1]/7,2,3,4,5,6,7/1,2,3,4,5,6,
{32}7/1,,,8,,,8,,
{48}1,2,3,4,5,6,1,2,3,4,5,6,2,3,4,5,6,7,2,3,4,5,6,7,
{32}3b<1[8:1],,,1,,,2,,3/8<2b[8:1],,,4,,,4,,8>6[8:1],,,7,,,6,,5b>7b[8:1]/8b,,,7,,,8,,1s5[8:1]/5,,,,
{64}6,5,4,3,2,1,8,7,
{32}1b/6b,,,6,,,6,,4h[16:1],,,3h[16:1]/5h[16:1],,,2h[16:1]/6h[16:1],,,1h[16:1]/7h[16:1],,,8h[16:1],,,,
(80)
{8}8z4b[16:1],,8b/4b,
{64}1,2,3,4,
{96}5,6,7,8,1,2,
{32}3b/7b,,,3b/7b,,,
{64}1,5,1,5,
{32}1bs5b[16:1],,,3b/7b,,,,,1b/5b,,,3b/7b,,,
{64}7,8,7,8,
{32}7b<4b[16:1],,,1b/5b,,,,,3b>8b[16:1]/7b,,,,,,,,3b/7b,,,1b/5b,,,,,
(75)
{8}1s5b[16:1],,1b/5b,
{64}8,7,6,5,
{96}4,3,2,1,8,7,
{32}6b/2b,,,6b/2b,,,
{64}8,4,8,4,
{32}8bz4b[16:1],,,6b/2b,,,,,8b/4b,,,6b/2b,,,,,
{32}2b>5b[16:1]/6b,,,8b/4b,,,,,6b<1b[16:1]/2b,,,,,,
{64}6,5,6,5,
{32}6b,,,8b/4b,,,,,
(150){1}2z6<5[1:8]*z6<5[1:8]/Cf,5,5,
(140){1}5,6,
(130){1}6,6,6,
(100)
{64}1b,2/8,3/7,4/6,
{16}5bqq1[8:9],,,,,,,,,,,,,,,,,,,,,,8<5[16:5],,,,,,,,,2qq5[8:5],,,,,,,,4<7[4:1],,,,,,,,4h[4:1],,,,8,,,,1,,,,2,,,,3q5[2:1]/7pp4[4:3],,,,,,,,,,,,,,,,3v8[4:3],,,,,,,,,,,,,,,,7v4[4:3],,,,,,,,,,,,,,,,1h[1:1],,,,5,,,,6,,,,7,,,,8bq1[2:1],,,,,,,,,,,,,,,,2>4[2:1]/7<5[2:1],,,,,,,,,,,,,,,,1-7[4:1],,,,7-3[4:1],,,,3-5[4:1],,,,5w1[8:3],,,,,,,,,,,,4w8[4:3]/5w1[4:3],,,,,,,,,,,,,,,,,,,,7h[4:1],,,,3qq5[4:3],,,,,,,,,,,,,,6,,6p4[4:3],,,,,,,,,,,,,,3,,3>5[2:1],,,4,,,4,4,4,,,4,,,4h[8:1],,
(200){16}1,2,5,6,2,3,6,7,3,4,7,8,5,,5h[8:1],,8,7,4,3,7,6,3,2,6,5,2,1,4,,4h[8:1],,7,8,5,6,8,1,6,7,1,2,7,8,5,,5h[8:1],,2,1,4,3,1,8,3,2,8,7,2,1,4/8,,1/5,,2/6,3,8,1,6,7,4,5,2,3,8,1,3,,3h[8:1],,7,6,1,8,3,2,5,4,7,6,1,8,6,,6,,6/4-6[8:1],,,,4,,2-4[8:1],,,,2,,8,,8,,5-3[8:1],,,,5,,7-5[8:1],,,,7,,1,,1,,2bh[4:1]/4V61[4:1],,,,4,,2>4b[8:1],,,,2,,1,,8,,5/7,,4,,5/3,,2,,1/7,6,5,4,8,7,6,5,1<6[8:1],,,,1,,5-2[8:1],,,,5,,7,,6,,3/5,,2,,1/7,,2/8,,1/3,,2/4,,3/5,,4/6,,3b/7b,,6,5,6h[8:1],,5,,5/7,,4/6,,3/5,,2/4,,1/5,,2,3,2h[8:1],,1,,1/2,,3/8,,4/7,,5/6,,1/8,,3,4,2,,2,4,3,,3/4,,4/5,,5/6,,1/8,,6,5,7,,7,5,6,,5/6,,4/5,,3/4,,2/7,,6,5,6,,6,7,6,,6,,2/7,,3,4,3,,3,2,3,,3,,2/7,,1,8,1,,1,,3/7,,6,5,6,,7,,1/8,,2,,3/4,,5,,2/6,,3,4,3,,2,,1/8,,7,,5/6,,4,,{16}3/7,8,1,2,3,4,5,6,7,8,1,2,3,4,5,6,
{24}3,2,1,8,7,6,5,4,3,2,1,8,7,6,5,4,3,2,1,8,7,6,5,4,
{24}7,8,1,2,3,4,5,6,7,8,1,2,3,4,5,6,7,8,1,2,3,4,5,6,
{32}1,8,7,6,5,4,3,2,1,8,7,6,5,4,3,2,1,8,7,6,5,4,3,2,1,8,7,6,5,4,3,2,
{16}1b/5b,,,6,5,,4/7,,6,5,6,,4/7,,1/8,,2/5,,,3,4,,2/5,,3,4,3,,2/5,,1/8,,4/7,,6,5,6,,4/7,,6,5,6,,4/7,,1/8,,2/5,,3,4,3,,2/5,,3,4,3,,2/5,,1/8,,
{16}7-4[16:1],,,3-7[16:1],,,5,,5,,6,4,6,,3/7,,1-5[16:1],,,6-1[16:1],,,4,,4,,3,5,3,,2/6,,7,8,7,2,1,2,7,8,6,2,1,3,
{32}8,7,6,5,4,3,2,1,
(210)
{4}8-4[4:1],,
{16}8-4b[8:1],1,2,3,4/8,,,,
(210)
{16}1,5,2,4,3h[8:1],,8,,7,3,6,4,5-1[8:1],,2-4[8:1],,5x,,2x,,8,,7,,5,6,4,5,
{16}3>8[16:3]/6,,4/5,,3x/8,7,6,5,7x,6,5,4,3/6,,2/4,,5/7,,1/8,,
{16}2>5[8:1]/6,,1/8-4[8:1],,2x/7,,8x,,3-8[8:1],,2/6,,3x/5<1[16:3],,4,,5x/1,2,3,4,2x,3,4,5,6/3,,5/7,,4/2,,1/8,,
{16}3/7-1[8:1],,6,5,7x/3-5[8:1],,2,,3x/7-3[8:1],,6,,3/7x,,1,,
{16}6/2-8[8:1],,3,4,2x/6-4[8:1],,7,,6x/2-6[8:1],,3,,6/2x,,8x,,4b/8,3,2,1,4b,3,2,1,5b,6,7b,8,5b,6,7b,8,
{16}2<7[8:1],5,3,4,2x,,6,,6>3[8:1],1,7,8,6x,,2,,1,8,1,7,2,7,3,6,3x>8[8:1],5,7x<4[8:1],5,3x,,7x,,1x,,3/7,,6,4,6,4,8x-4[8:1],,2/6,,8x,,3,,1/5,,2/4,,1/7,,3/4,,1/8,,2/6,,
{16}3/5,6,7,8,2-6[8:1],,2,,4,,4,,8-4[8:1],,8,,6,,6,,3-7[8:1],,3,,5,,5,,1-5[8:1],,1,,7,,7,,8<5[8:1]/4,,1,2,8x,,3x,,3>8[8:1]/7,,4,5,3x,,5x,,
{32}5b,4,3,2,1,8,7,6,
{16}5/1,,3x/7x,3/7,,1x-4[16:1]/5x-8[16:1],1h[8:1]/5h[8:1],,,,,,
{16}3b/7b-5[8:1],,1x,1,7-4[8:1],,2x,2,7-3[8:1],,3x,3,7,,4,,8x-4[8:1],,2x>5[8:1],,8x,,2,,
{24}1x,2,3,4,5,6,
{16}1b/7b,,,,
{16}6b/2b-4[8:1],,8x,8,2-5[8:1],,7x,7,2-6[8:1],,6x,6,2,,5,,1x-5[8:1],,7x<4[8:1],,1x,,7,,
{24}8x,7,6,5,4,3,
{16}8b/2b,,,,
{16}3b-8[8:1]/7b-4[8:1],,4/8,,3/7,,,,1-5[8:1]/5,,3/7,,1/5,,,,
{16}4x/8x,3,2,1,8x-4[8:1]/4x,7,6,5,4x/8x,,3,,2,1,3,8,
{16}4x,5,4,5,3x,4,3,4,1x>4[8:1],,8,,1x/7x,,,,
{16}5x,4,5,4,6x,5,6,5,8x<5[8:1],,1,,8x/2x,,1,,
{24}1x<6[8:1],2,3,4h[8:1],,,
{16}1p5[8:1],,5,,1v4[8:1],,4x,,1x,,3x,,2/6,,8,7,1,8,2,1,
{16}3x-1[8:1]/8x-4[8:1],,4,,3/8,,,,5,3,6,2,7-2[8:1],1,8,2,7x/3>8[8:1],,4x,,
{24}3x/7x,6,5,4,,,
{16}1,4,3,8,5,6,4,,2>5[8:1]/5,,7/8,,
{24}2x/5x,6,7,8,,,
{16}8,4,7,5,6,,2/7b,,1,5,2,4,3,,1b/8,,7,5,6,2,4,3,8,6,7,1,3,2,6,,4b/5b,,
{16}1,8,2,7,1,8,2,7,3,6,4,5,3,6,2,7,
{24}1/8,2,3,4,5,6,
{16}8bh[8:1],,,3bh[8:1]/B1f/B2,,,6bh[8:1]/B6/B7f,,,,4b,,
{16}8b-2[8:1],,2,,8-3[8:1],,3,,8-4[8:1],,4,,8-5[8:1],,5,,8,,4,,
{16}8,4,8,4,7,3,6,2,6,2,4,3,
{16}1b-7[8:1],,7,,1-6[8:1],,6,,1-5[8:1],,5,,1-4[8:1],,4,,1,,5,,1/7,,4/6,,2/8,,3/4,,5/6,,
{24}1/8,2/7,3/6,4/5,,,
{16}1,8,1-3[8:1],,3,,1-5[8:1],,5,,1>4[8:1],,8,,
{24}1b/8b,7,6,5,,,
{16}2-5[8:1]/7,,1,4,2x,,7-4[8:1],,8,5,7x,,
{16}3,5,1,6,4,8,2,4,3,7,5,6,2/7,,3/8,,
{32}3x/8,4,5,,7,,,,2x/7,3,4,,6,,,,1x/6,2,3,,5,,,,
{24}3x,4,3,
{16}6,5,7x-4[8:1],2,8,1,7,,3,,2x>5[8:1],6,1,8,2,,7,,8,6,8,5,8,4,8,3,8,2,8,1,8x,7,6,5,
{16}4<7[8:1]/3,,2,,
{24}8x/4x,1,2,3,,,5>2[8:1]/8,,,8,,,1x/5x,8,7,6,,,
{16}1,3,1,4,1,5,1,6,1,7,1,8,1x,2,3,4,
{16}6-1[8:1]/5,,6,5,6x,,2x,,3-8[8:1],,3,4,3x,,7x,,6<1[8:1],5,6,7,6x,,2x,,3>8[8:1],4,3,2,3x,,7x,,
{16}2,5,3,4,8,7,1,6,2,1,3,8,2,1,2,1,
{32}2b,3,4,5,6,7,8,1,
{16}2>4[16:1]/5,,,5,2q6[16:1],,5,2,7h[4:1],,,,
{16}1-5[8:1],,1,,8,,7-3[8:1],,7,,4>1[8:1],,4,,
{24}4x,5,6,7,,,
{16}3/5,,1/7,,3/5,,4-8[8:1],,2/6,,8/4,,7,6,
{16}5-1[8:1]/1,,5,,4,,3-7[8:1],,3,,8<5[8:1],,8,,
{24}8x,1,2,3,,,
{16}7/1,,5/3,,7/1,,8-4[8:1],,6/2,,4/8,,3,2,
{16}1<7[8:1]/5,,6,,1<6[8:1],,5,,1<5[8:1],,4,,1,,4hx[8:1],,
{16}1,4,1,4,2xq6[8:1],,8,,8x,,7x,,4,5,3,4,
{16}8>2[8:1]/2,,3,,8>3[8:1],,4,,8>4[8:1],,5,,8,,5hx[8:1],,
{16}8,5,8,5,7xp3[8:1],,1,,1x,,2x,,5,4,6,5,
{8}1/8-4[8:1],8,1-3[8:1],1,7-5[8:1],7,8-4[8:1],8,6,6,
{16}5-1[8:1],3,7,1,5,,3,,
{16}4b,5,3,4,
{8}8/1-5[8:1],1,8-6[8:1],8,2-4[8:1],2,1-5[8:1],1,3,3,
{16}4-8[8:1],6,2,8,4,,6,,5b,4,6,5,
{8}1/8-4[8:1],8,3-8[8:1],3,5-1[8:1],5,2-5[8:1],2,7-4[8:1],7,1-6[8:1],1,8-3[8:1],8,
{8}4-8[8:1],4,7-4[8:1]/4x,7,3-7[8:1]/7x,3,8-3[8:1]/3x,8,4z8b[4:1]/8x,4,
{16}4x/8z4[4:3],,,,6x,6,,2,2x,,5x,5,,3,3x,,
(220)
{16}1b,,2,,3/5,,6,,7<4[8:1],8,7,8,7,,1,,3/5,,2,,3/5,,6,,1/8,,4,5,3,4,2/6,,
{16}1/8,,7,,6/4,,3,,2>5[8:1],1,2,1,2,,8,,4/6,,7,,4/6,,3,,1/8,,3/5,,
{32}1,8,7,6,5,4,3,2,
(230)
{16}1b/5b,,6,5,6,,7/4,,3,4,3,,2/5,,4/6,,2h[8:1]/8,,8,,2h[8:1]/6,,6,,2h[8:1]/4,,4,,2/8,,2,,4/6,,3,4,3,,2/5,,6,5,6,,4/7,,3/5,,6h[8:1]/8,,8,,6h[8:1]/2,,2,,6h[8:1]/4,,4,,
{32}8,1,2,3,4,5,6,7,
(240)
{8}4b/8b,4,4,,4/6,4,4,,4/2,,4,,4/8,3/7,2/6,,
{8}1/5,5,5,,3/5,5,5,,
{16}5/7,,,5/1,,,3/5,,6,5,6,5,7,,7,,
{8}1,1,3,3,5,5,7,7,8/7,8/7,6/7,6/7,6/5,6/5,4/5,4/5,
{16}4b,3,2,1,5b,4,3,2,6b,5,4,3,7,6,5,4,
{16}3b/7b,,1,1,1,,3/7,,5b,5b,5b,,
{32}1/C,8,7,6,5,4,3,2,
{16}1b,,,4,3h[8:1],,5,,4>1[8:1]/6<1[8:1],,7,,4/6,,,,
{24}2-6[8:1]/8,7,6,
{16}5h[8:1],,2,,,4,3h[8:1],,5,,4/6,,3/7,,
{16}2b/8b,,,4,3h[8:1],,5,,4,6,4,6,3/7,,,,
{16}2,1,1,8,2h[4:1],,1,,
{16}1,8,7,6,
{16}5/1b-6b[8:1],,1b,,
{16}5b,,,4,3h[8:1],,5,,4/6,3,7,2,8h[4:1],,,,
{24}4,3/7,2/6,
{16}1/5,,3/7,,,,5,6h[8:1],,4,5h[8:1],,3,4h[16:1],
{16}2b,,4/7,,6,5,6,4,5,3,4,3,Ch[4:1]/B4f,,,,
{48}1b,2,,,,,,,,7b,6,,,,,,,,2b,3,4,,,,,,,8b,7,6,,,,,,,
{32}1,2,3,4,5,6,7,8,
{16}1b/Cf,,,5,6h[8:1],,4,,5<8[8:1]/3>8[8:1],,2,,5/3,,,,
{24}7-3[8:1]/1,2,3,
{16}4h[8:1],,7,,,5,6h[8:1],,4,,5/3,,6/2,,
{16}7b/1b,,,5,6h[8:1],,4,,5,3,5,3,6/2,,,,
{16}7,8,8,1,7h[4:1],,8,,
{16}8,1,2,3,
{16}4/8b-3b[8:1],,8b,,
{16}4b,,,5,6h[8:1],,4,,5/3,6,2,7,1h[4:1],,
{16},,
{24}5,2/6,3/7,
{16}4/8,,2/6,,6,,4,5,3,5,
{16}3,,2/6,,
{32}1b,2,3,,,,7b,6,5,,,,2b,3,4,,
{32}8b,7,6,,,,2b,3,4,,,,7b,8,1,2,
{16}5x,,5x,,6x/4x,,8,1,7,2,6,3,5,,1/8,,
{32}6b,5,4,,,,7b,6,5,,,,8b,7,6,,
{32}3b,4,5,,,,2b,3,4,,,,1b,2,3,,
{32}7b,6,5,,,,2b,3,4,,,,8b,7,6,,
{16}2x,1,3,8,4,7,5,6,
{32}2b,3,4,,,,7b,6,5,,,,1b,2,3,,
{16}7x,8,6,1,5,2,4,3,
{32}7b,6,5,,,,2b,3,4,,,,8b,7,6,,
{16}1x,,1x,,1,8,1,8,
{32}1b,2,3,4,,,2b,3,4,5,,,3b,4,5,6,
{16}8x,,8x,,8,1,8,1,
{32}8b,7,6,5,,,7b,6,5,4,,,6b,5,4,3,
{16}1x,8,2,7,1,8,2,7,
{32}3b,4,5,6,,,2b,3,4,5,,,1b,2,3,4,
{16}8x,1,7,2,8,1,7,2,
{32}6b,5,4,3,,,7b,6,5,4,,,8b,7,6,5,
{16}1,8,2,7,3,6,4,5,
{16}2x,1,2,1,2,1,2,1,3,8,3,8,3,8,3,8,4,7,4,7,4,7,4,7,5-1[8:1],6,5,6,5b,,,,
{16}7x,8,7,8,7,8,7,8,6,1,6,1,6,1,6,1,5,2,5,2,5,2,5,2,4-8[8:1],3,4,3,4b,,,,
{16}1hx[32:1],7,1,7,1,7,5hx[32:1],7,5,7,5,7,1hx[32:1],,2/8,,3hx[32:1],1,3,1,3,1,3hx[32:1],5,3,5,3,5,
{32}3x,2,1,8,7,6,5,4,
{16}3x/7x,,,5x,4,6,5,1x,2,8,1,7x,5,6,4,5x,
{16}2b/8b,,3x,3,3x,,4b/6b,,7x,7,7x,,2bv4[16:3]`8bv6b[16:3],,
{32}2/8,3/7,4/6,5bxV31[4:71]*V71[4:71],
{4}Cf,,,,,,,,,,,,,,,,,,,,,,,,,,,,,,,,,,,,,,,,,,,,,,,,,,,,,,,,,,,,,,,,,,,,,,,,
(60){1},,
{8},,,
{16},
{32},,,
{64},
{128},
(195)
{8}6z2[4:31],,,,,,,,,,,,,,,,,,,,,,,,,,,,,,,,
{8}D5,,,,,,,,,,,,,,,,E5,,,,,,,,C,,,,,,,,
{8}5<4[4:31],,,,,,,,,,,,,,,,,,,,,,,,C,,,,,,,,
{8}C,,,,,,,,,,,,,,,,B5,,,,,,,,B4,,,,,,,,
{8}7pp4[4:31],,,,3h[4:5],,,,,,,,,,,,,,3h[4:5],,,,,,,,,,,,,,
{8}2h[2:1],,,,,,,,2h[2:1],,,,,,,,1h[2:1],,,,,,,,1h[2:1],,,,,,,,
{8}2q5[1:7],,,,,,,,1h[2:1],,,,,,,,1h[4:3],,,,,,,,8h[2:1],,,,,,,,8h[4:3],,,,,,,,7h[2:1],,,,,,,,7h[4:3],,,,,,,,6h[2:1],,,,
{32}E1,E2,E3,E4,E5,E6,E7,E8,
{8}E1/D1f,,
{16}5h[8:1]/6h[8:1],,,5h[8:1]/6h[8:1],,,5/6,,3h[8:1]/4h[8:1],,,3h[8:1]/4h[8:1],,,3/4,,1h[8:1]/2h[8:1],,,3h[8:1]/8h[8:1],,,4/7,,
{48}A5,D6,A6,D7,A7,D8,A8,D1,A1,D2,A2,D3,
{16}A3/C,,,,7h[8:1]/8h[8:1],,,7h[8:1]/8h[8:1],,,7/8,,1h[8:1]/2h[8:1],,,1h[8:1]/2h[8:1],,,1/2,,
{24}3-8[8:1],4,5,
{16}6-1[8:1],,3,,6,,
{16}2,3,8,7,
{16}3,4,7,6,1h[8:1]/5h[8:1],,,1h[8:1]/5h[8:1],,,1/5,,3h[8:1]/7h[8:1],,,3h[8:1]/7h[8:1],,,3/7,,
{16}4,,4,,4,,4,,6,5,5,6,
{24}4,3,2,1,,,
{16}1h[8:1]/7h[8:1],,,1h[8:1]/7h[8:1],,,1/7,,3h[8:1]/5h[8:1],,,3h[8:1]/5h[8:1],,,3/5,,8,8,8,7/1,2>2[4:1]/6z2[4:1],,2/6,,,,,,,,,,
(202)
{8}1b,3/4,4/5,5/6,7/8,7/1,7/2,7/3,
(210)
{8}1b,5/6,4/5,3/4,2/1,2/8,2/7,2/6,
(217)
{8}1b,2/4,3/5,4/6,7/8,1/6,2/5,3/4,
(225)
{8}1b,5/7,4/6,3/5,1/2,3/8,4/7,5/6,
(232)
{8}1b,2/5,3/6,4/7,3/5,4/6,2/5,4/7,
(240)
{8}1b,7/4,6/3,5/2,6/4,5/3,7/4,5/2,
(247)
{16}1b,,3/7,,4,6,4,,7,3,7,,2,8,2,8,
(255)
{4}1b,2,3,4,
(258)
{8}5,4,6,6,,,2,2,4,3,,,8,,4/7,,6,5,7,7,,,1s5[8:1]*z5[8:1],2/8,A1f,,,,
{8}4/6,3/7,2/8,2/8,
{8}1b-5[8:1],1,7-3[8:1],7,2>5[8:1],2,8-3[8:1],8,8<5[8:1],5,8-4[8:1],3,1/8,2,3/5,6/2,
{8}1/7-3[8:1],7,1-5[8:1],1,8-4[8:1],8,2-6[8:1],2,5,5,3/7,3/7,1>4[8:1],1,
{16}4,5,6,7,
{8}8b-4[8:1],8,2-6[8:1],2,7<4[8:1],7,1-6[8:1],1,1>4[8:1],4,1-5[8:1],6,8/1,7,6/4,3/7,
{8}8/2-6[8:1],2,8-4[8:1],8,1-5[8:1],1,7-3[8:1],7,4,4,6/2,6/2,8-4[8:1],2>5[8:1],8,2,
{8}6b-1[8:1],6,2-6[8:1],2,8-4[8:1],8,5-2[8:1],5,1,1-5[8:1],,7,7-4[8:1],4,3,2>5[8:1],,1/2b,8-4[8:1],8,1-3[8:1],1,7-5[8:1],7,4,4,2/6,2/6,
{16}3,4,2,,5,4,6,,
{8}2-5[8:1],2,7-4[8:1],7,1-5[8:1],1,8-4[8:1],8,8<5[8:1],3,8-3[8:1],2,8,1,
{16}8,7,6,5,
{8}4/7-3[8:1],7,5-2[8:1],5,8<5[8:1],8,1,1,
{16}2h[8:1]/4h[8:1],,,5h[8:1]/7h[8:1],,,1/8,,5h[8:1]/7h[8:1],,,4h[8:1]/2h[8:1],,,1/8,,
{8}1bs5[4:1]/8b,,,,7-5[8:1],8-4[8:1],7V51[2:1],8,7,,2-4[8:1],,2<1<8<7<4[4:1],,8,,
{8}2b,,3,3,4,
{16}2,4,
{8}3<6[8:1],3,
{24}7s3[2:1],8,1,
{8}2,,,8b,8,7<4[8:1],7,
{24}4,3,2,
{8}1,1-5[16:3],,,6,6<1[8:1],6,
{24}1,2,3,
{8}4,
{16}3,5,3,5,1,,1,,8/2,,4/6,,
{24}8>3[8:1],7,6,
{8}5,8,6h[8:1],4h[8:1],8h[8:1],
{16}2v5[16:3],8,,8,2,,,,
{16}1,8,7,6,
{16}3/5,,3,4,2,,2,,
{8}3/5,3/5,1x,,4/6,4/6,8x,,3/5,3/4,1x,,4/6,5/6,8x,,3/5,2/4,1x,,4/6,5/7,8x,,3/4,2/5,1/6,7/8,1/6,
{16}3,4,2,,8,1,
{8}8-4[8:1],,1/8,,
{16}2>5[8:1]/6,,1-5[8:1],8,2,,1,,2-6[8:1],,6-2[8:1],,8>6[4:1],,7,,8,,,,8,1,2,3,4/7,,6,,6,5,7,,2/5,,3,,3,4,2,,5/7,,6,5,7,5,6,,2/5,,3,4,2,4,3,,1b>2>3<4<5<6<7>8[4:33]/8b,,,,,,,,,,,,,,,,,,,,,,,,,,,,,,,,
(247)
{1}1>4b[2:3],,
(236)
{1}3<6b[2:3],,
(225)
{1}5<8b[2:3],,
(214)
{8}1bs5[4:3],,,,,,,,
{16}6,,6,5,7,,4/8,,2,2,3,1,4,8,5,7,
{8}6x/4xz8[4:3],,6x/4x,,,,,,
{16}7,1,6,2,5,3,5,5,4,,6,6,5,,7,7,
{8}6x/8x,
{16}6x/8x,1/5,
{8}2z6[2:1]/4,2x/4x,,,,,
{16}2,1,8,7,6,,4,4,5,,3,3,4,,2,2,3x/1x,4x/8x,5x/7x,,5x/7xs3[2:1],,,,,,,,,,,,
{16}1,,1,,2/8,,3/7h[8:1],,5,4,3,2,8,7,6,5,
{16}1b-5[8:1],6,1,6,1,,7b-3[8:1],4,7,4,7,,2b-6[8:1],5,
{16}2,5,2,,8b-4[8:1],5,8,5,8,,3bw7[8:1],,,,3b,,,,1,5,1,5,2,6,2,6,3,7,3,7,4,8,4,8,4,7,5,6,3,8,5,6,2,1,2,1,3,4,2,,
{16}8b-4[8:1],3,8,3,8,,2b-6[8:1],5,2,5,2,,7b-3[8:1],4,
{16}7,4,7,,1b-5[8:1],4,1,4,1,,6bw2[8:1],,,,6b,,,,8,4,8,4,7,3,7,3,6,2,6,2,5,1,5,1,5,2,4,3,6,1,4,3,7,8,7,8,6,5,7,,
{16}4b-8[8:1],7,4,7,4,,6b-2[8:1],1,6,1,6,,3b-7[8:1],8,
{16}3,8,3,,5b-1[8:1],8,5,8,5,,2bw6[8:1],,,,2b,,,,4,8,4,8,3,7,3,7,2,6,2,6,1,5,1,5,1,6,8,7,2,5,8,7,3,4,3,4,2,1,3,,
{16}1/8,,2/7,,7,5,6,4,5,,3/4,,2/5,,7,8,6,8,7,,1/5,,2/4,,3,4,1,8,5,,4/6,,3/7,,
{16}2,1,2,1,2,1,3/8,,3/8,,5,6,5,6,5,6,4/7,,4/7,,2,3,2,3,2,3,1/4,,3/5,,7,6,7,6,7,6,5/8,,4/6,,3,5,3,5,2,6,2,6,1,7,1,7,8,8,8,8,1b/7b,,2b/8b-4[8:1],,,,4b,,2bq6[8:1],,,,7b,,8bp4[8:1],,,,4b,,2bz6[8:1],,,,6b,,8bz4[8:1],,,,4b,,
{8}2b>5[8:1],,1b/2b,
{24}7b-5[8:1],,,2,3,4,7b-4[8:1],,,1,2,3,7b-3[8:1],,,8,1,2,3V58[4:1]/7b,,,1,,,
{8}2b-6[8:1],1,2<4b[4:1],1,2,,
{16}2b,1,8,7,3,2,1,8,4,3,2,1,7,6,5,4,1,5,2,6,
{16}3,7,4,8,1/5,4/8,3/7,2/6,
{8}1b-4[8:1]/5b,,1b/7-2[8:1],,5/7b,5<3[4:1],4,3p5[4:1]/5,
{8},5,4w8b[8:1],4,4b,,2b/6b,
{16}3,5,4,4,2,6,4,4,3,5,2,6,1,7,2,2,4,3,8,8,6,7,
{32}2,3,4,5,6,7,8,1,
{24}2b-4[8:1],,,7,6,5,2b-5[8:1],,,8,7,6,2b-6[8:1],,,1,8,7,6V41[4:1]/2b,,,8,,,
{8}7b-3[8:1],8,7>5b[4:1],8,7,,
{16}7b,8,1,2,6,7,8,1,5,6,7,8,2,3,4,5,8,4,7,3,
{16}6,2,5,1,8/4,5/1,6/2,7/3,
{8}8b-5[8:1]/4b,,8b/2-7[8:1],,4/2b,4>6[4:1],5,6q4[4:1]/4,
{8},4,5w1b[8:1],5,5b,,7b/3b,
{16}6,4,5,3,4,2,1,3,8,4,7,5,6,3,4,2,5,1,6,8,7,1,
{32}6,5,4,3,2,1,8,7,2b/6b,,,,2,,,,
{20}1,5,1,5,1,5,1,5,1,5,1,5,1,5,1,
{32}5b,,,4,,,3,,,2,,,1,,,8,,,7,,,6,,,
{12}1/5,1/5,1/5,
{16}3/7,6,5,4,8,7,6,5,1,8,7,6,3,4,2,5,1,6,8,7,
{16}1,2,3,4,5/8,,8,,
{20}2,1,2,1,2,1,8,7,6,5,
{16}4/3,2,1,8,
{20}6,5,6,5,6,
{20}1,8,1,8,1,4,3,4,3,4,
{8}2/5,2/5,4/7,4/7,2/6,2/6,4/8,4/8,3/5,2/6,
{20}1/7,2,3,4,5,8,1,2,3,4,
{16}5/2,,7,8,7,,1/6,,
{20}2,8,2,8,2,
{8}8,4/6,
{20}5,3,5,3,5,
{8}3,2/4,
{20}7,8,7,8,7,1/6,,1/6,,2/5,,2/5,,3/4,,
{8}3/4,6/5,4/3,6/2,7/4,5/3,
{16}8/1,,2,4,
{12}3,3,3,
{8}4/6,3/7,
{20}2,1,2,1,2,
{8}3/8,4/6,
{20}5,3,5,3,5,
{8}2/6,1/7,
{20}1,8,7,6,5,
{8}4/8,4/8,
{20}7x,6,5,4,3,8x,7,6,5,4,1x,8,7,6,5,2x,1,8,7,6,3x,2,1,8,7,4x,3,2,1,8,5x,4,3,2,1,
{8}8bw4[2:3],,,,,,,,,,,,,,,,
{8}6h[1:2],,,,,,E5,E4,E3,,,,1,,,,1h[1:2],,,,,,C,,E4,,E5,,E6,,E7,,8h[1:2],,,,,,
{8}E6,E5,E4,,,,4,,,,4h[1:2],,,,E7,,E6,,E5,,
{8},,C,,,,7h[1:2],,,,E3,,E4,,E5,,,,C,,,,2h[1:2],,,,E6,,E5,,E4,,,,C,,,,6h[1:2],,,,,,,,,,E4,,E3,,E2,,
(107)
{8}8p4[4:1],,,2,2>6[4:1],,,,
{16}7p3[4:1],,,8,,,1,,1q5[4:1],,,,5,,6,,7<3[4:1],,,8,,,1,,2q6[4:1],,5,,6,,7,,
{8}8<5[4:1],,8>5[4:1],,8p4[4:1],,8,1,
{16}2h[2:1],,,3,,,4,,5h[2:1],,,6,,,7,,8h[2:1],,7,,6,,5,,4h[2:1],,,,1,,2,,3h[2:1],,2,,1,,
{8}8,7h[2:1],,6,5,4h[4:3],,B5,,B6,,8-4[16:1],,
(214)
{8}1/8b,,6,5/7,,,1-5[8:1],,1b/8,,3,2/4,,,7-3[8:1],3,7b/3V51[4:1],,1,1,,,2>5[8:1],,
{8}1/2b,,8h[4:1],,6h[4:1],,4<7[8:1],,8-4[8:1]/4b,,1<6-2[4:1]/8b,,5/1b,5>6b[4:1],,
{8}1/5b,,2x,3,4,5/6,7,1-5[8:1]/8,2/5,1b/7-2[8:1],,4b,4<7[8:1],,3qq5b[8:3]/4b,,3b/8,,,
{8}6h[4:1],,5h[4:1],,4h[4:1],,
{24}1b,8,7,6,5,4,3,2,1,8,7,6,
{8}5-2[8:1],,8,,
{24}8b,1,2,3,4,5,6,7,8,1,2,3,
{8}4q5[2:1],,1,,1h[8:3],,,6h[8:3],,,4h[4:1],,8h[2:1],,,,
{8}1,,1>5[4:1],,8bq1[4:7],,,,E7,,E3,,,,A4,,D5,,A5,
{24}E6,B5,B4,
{8}E4,,8,8h[4:1],,2,2h[4:1],,4bw8b[2:1],,,,,,,,
(220)
{8}1b,1,2,2,3,3,4,4,
(227)
{8}1b,1,2,2,3,3,4,4,
(233)
{8}1b,1,2,2,3,3,4,4,
(239)
{8}1b,1,2,2,3,3,4,4,
(245)
{8}1b,1,2,2,3,3,4,4,
(252)
{8}1b,1,2,2,3,3,4,4,
(258)
{8}1b,1,2,2,3,3,4,4,
(264)
{8}1b,1,2,2,3,3,4,4,
{8}1b-5[8:1],,6,,2-4[8:1]/6,,6,,1-5[8:1]/6,,6,,8-4[8:1],,3,,7-5[8:1]/3,,3,,
{8}8-4[8:1]/3,,3,3,3/5,3/5,2/6,2/6,1/7,1/7,2/8,2/8,3/7,3/7,4/6,4/6,
{8}5b-1[8:1],,2,2,
{16}2/8,7,6,5,
{8}3b/4,3/4b,3b/4,3/4b,3b/4,3/4b,5/6,4/7,,1/8,2/7,,3/4,2/5,,5/6,4/8,,1/2,3/7,,3/4,
{8}2/6,,7/8,1/5,,4/6,2/8,,1bs5[8:11],1,,2,8,,3,7,,4,6,,8h[4:3],,4,,4,,4b,,
{8}4/6,4/6,3/7,3/7,2b-4[8:1]/8b,,2-8[8:1]/7,7,2-5b[8:1]/5,5,2-8[8:1]/7-3[8:1],,
{8}2/7<4b[8:1],,1-4[8:1]/7-2[8:1],,1/7,,5w1b[8:1],5,5b,,3b/7b,,4/5,,
{8}6-2[8:1],6,3-5[8:1],3,8-4[8:1],8,1-3[8:1],1,7-5[8:1],7,8-4[8:1],8,7>5b[4:1],7,5b,,
{24}D1,A1,D2,A2,D3,A3,
{8}D4f/7b<4[8:1],
{16}8,1,
{8}7-3[8:1],,2/7,2,
{24}1,8,7,6,5,4,
{8}3b/8-4[8:1],8,2-5[8:1],2,7-3[8:1],7,1b,1b,
{16}2/4,5,6,7,1<6[8:1]/8,2,3,4,
{8}5/1b>4[8:1],,1b-6[8:1],,1b-4[8:1],,1b,,1,1,
{16}8,7,6,5,
{8}3/4,2,2,1/8,7,7,5/6,4,4,3/5,6,6,7/1,2,2,3/5,
{16}6,5,6,5,
{8}7x/4x,2x/5x,
{16}1,8,1,8,1,8,1,8,
{8}2b/7bp3[8:1],7,1>4[8:1],1,
{16}4,5,6,7,
{12}8b,1,7,2,6,3,
{8}4/5-1[8:1],5,2-5[8:1],,2/8-4[8:1],,3-7[8:1]/8,,3/5,,5,5,4/6,4/6,
{8}2-5[8:1],7-1[8:1],2,7,
{16}3,4,3,4,
{8}3-1[8:1],6-4[8:1],3,6,
{16}8,7,6,5,
{16}1,8,7,6,
{8}2-5[8:1],1-6[8:1],2,1,4b,,
{16}3,2,1,8,6,4,6,4,
{8}5b-1[8:1],5,2-5[8:1],2,8,8,4-8[8:1],4,7-4[8:1],7,1,1,
{8}2>5[8:1]/6<1[8:1],,2-7[8:1]/6-3[8:1],,2/6,,1b/5b,,3/7,5/6,
{16}2,4,2,4,
{8}2-5[8:1],2,1-6[8:1],1,8-3[8:1],8,7-4[8:1],7,5-2[8:1],5,6-1[8:1],6,3-8[8:1],3,
{8}4-7[8:1],4,1,1,
{16}2/8,3,4,5,6/2,7,8,1,
{8}4b/2,6b,
(272)
{1}4q6<2b[4:29]`8bq2>6[4:29],,,,,,,
{8},,,,,,
{8}2h[4:1],,4h[4:1],,3h[4:1],,6,6h[4:1],,3,3,5,5,4,4,
{8}7h[4:1],,5h[4:1],,6,6h[4:1],,3h[4:1],,
{12}4,3,4,3,4,3,4,1,,
{12}6,5,6,5,6,5,
{8}7h[4:1],,1h[4:1],,5,3,3,5,5,3,
{12}2,4,2,
{8}4,2h[4:1],,8h[4:1],,4h[4:1],,
{12}6,5,6,
{8}5h[4:1],,1,
{16}1h[16:1],,,2/8,,3/7,,4/6,,
(282)
{16}2b/8b,,2/8,,3/7,,3/7,,4/6,,4/6,,2,3,4,5,2,1,8,7,
{16}6/2,,2/6,,1/5,,1/5,,4/8,,4/8,,7,6,5,4,1,8,7,6,
{16}1/5,,1/5,,2/6,,2/6,,7,6,5,4,7,8,1,2,3h[8:1]/7,,1,8,
{16}7,6,5,4,7,8,1,2,3,4,5/7,,5/7,,1/8,,
{16}8/1,2,3,4,5,6,1,2,3,4,5,6,1,,2/8,,3/7,,4/6,,1,8,7,6,5,4,3,2,1h[4:1]/7h[4:1],,,,
{16},,8,,8,,1/7,,1/7,,2/6,,2/6,,3/5,,,,1,,1,,2/8,,2/8,,3/7,,3/7,,4/6,,4/6,,5h[16:1],,
{16}E7,,B5,,C,,E4,,
{16}7b/1b,,7/1,,6/2,,6/2,,5/3,,5/3,,7,6,5,4,7,8,1,2,
{16}3/7,,7/3,,8/4,,8/4,,5/1,,5/1,,2,3,4,5,8,1,2,3,
{16}8/4,,8/4,,7/3,,7/3,,2,3,4,5,2,1,8,7,6h[8:1]/2,,8,1,
{16}2,3,4,5,2,1,8,7,6,5,4/2,,2/4,,8/1,,
{16}8/1,7,6,5,4,3,8,7,6,5,4,3,8,,7/1,,6/2,,5/3,,8,1,2,3,4,5,6,7,8h[4:1]/2h[4:1],,,,
{16},,1,,1,,8/2,,8/2,,7/3,,7/3,,6/4,,,,8,,8,,7/1,,6/2,5/3,6,7,8,1,2,3,5,6,7,8,1,2,3/7,,2/6,,5/1,,
(141)
{1}8bq1>4[2:3]/4bq5<8[2:3],,
{16}1,,,2,4,,1,,6,5,,5,8,,1/7,,2/6,,,3,4,,2/5,,6,5,,4,5,,4/6,,
{16}8,,2,1,2,,8,,1/7,,1,,6/4,6,4,5,
{24}1,2,3,4,5,6,
{16}7/1,2,3,4,8,1,2,3,7,8,1,2,3/4,,,6,5,,8,,3/7,,3,,5,,5,,4/6,,,3,4,,1,,2/6,2,,5,3/5,,2/6,,
(151.25)
{8}1-5[8:1],8,7,6,2-4[8:1],1,8,7,
(161.5)
{8}1q5[8:1],8,7,6,2>5[8:1],1,8,7,
(171.75)
{8}8-4[8:1],1,2,3,7-5[8:1],8,1,2,
(182)
{8}8p4[8:1],1,2,3,7<4[8:1],8,1b,,
(192.25)
{16}2,1,2,1,3,8,3,8,4>7[8:1],7,4,7,4,,,,
(202.5)
{16}6,5,6,5,7,4,7,4,8<3[8:1],3,8,3,8,,,,
(212.75)
{24}1,8,7,
{16}6,,
{24}8,7,6,
{16}5,,3,4,2,5,1>5[8:1],,7/8,,
(223)
{16}1/6bh[4:3],,,,,,,,E5,,E4,,E3,,E2,,
{16}7/8,,6,5,7<4[8:1],,8,1,7,,3,,1/2,,3,,8-3[8:1],,7-4[8:1],,8,,7,,
{16}2,,6,,4/5,,6,,7/1,,
{16}3,4,2>5[8:1],,1,8,2,,6,,8/7,,6,,1-6[8:1],,2-5[8:1],,1,,2,,
{16}7,,1,8,2>5[8:1],,
{24}5,6,7,
(227)
{16}8/2<7[8:1],,8,,2-6[8:1]/4,,4,,2/6,,7,,8bV25[4:1],,6,,5V73[4:1],,4,,3,,2,,1x,,2/8,,7,5,6,,4/3,,1<6[8:1],8,2,,2,,3,,3,4,2,,6,5,8-4[8:1],,
{16}1-3[8:1],,8,,1,,8,7,6,5,4x/1x-7[8:1],,,,
(229)
{8}1x/4xh[8:1],,1x>3[8:1]/4xh[8:1],,1x/6xh[8:1],,1x-7[8:1]/6xh[8:1],,1x/4xh[8:1],,1x>3[8:1]/4xh[8:1],,
{16}4x<7[8:1]/1x,,,4x,
{8}8x-2[8:1],3x,
{8}8x/5xh[8:1],,8x<6[8:1]/5xh[8:1],,8x/3xh[8:1],,8x-2[8:1]/3xh[8:1],,8x/5xh[8:1],,8x<6[8:1]/5xh[8:1],,
{16}5x>2[8:1]/8x,,,5x,
{8}6x,6x,
(233)
{12}7x,8x,7x,8x,7x,8x,5x,4x,5x,4x,5x,4x,1x,2x,1x,2x,1x,2x,
{16}3x/8x,,6x,5x,7x,,3x/4x,,2x/5x,,,,5x/7x<4[8:1],,,,7x/3x>8[8:1],,,,3x/7x-3[8:1],,,,3xV51[4:1]/7x,,,,2x,,,,2x,3x,4x,5x,6x,7x,8x,1x,
(239)
{16}2-8[8:1]/6,,3,4,2,,7,,1/6-4[8:1],,7,8,6,,1,,2-5[8:1]/6,,1,4,2,,6,,3/7-3[8:1],,8,3,7,,2,,1b/5b,,5,,2,3,4,5,1,2,3,4,8,1,2,3,4/7,,5/6,,1,7,1,7,2,6,2,6,3,5,3,5,
(241)
{16}4b,,6,5,7-4[8:1],,4<6-1[4:1],,7,,1,,1x,2,3,4,7,6,5,4,8,7,6,5,1,8,7,6,3,4,3,4,
{16}2-5[8:1]/5,,1,6,2,,7,,2-8[8:1]/8,,3,4,2,,5,,4,6,4,6,3,7,3,7,2,8,2,8,1,1,1,1,
(251)
{16}1b,,,,
{24}7<3[8:1]/8,6>2[8:1],5>1[8:1],4>8[8:1],,,
{16}7,,B7,,C,,B3f,,4/5,,6,5,7,,1,2,3,4,5/6,,7,,1/8,,
{16}2,4,3,,6,4,5,,2,4,3,,6,4,5,,3/4,,6,5,7,,4/5,,2,1,2,1,3/8,,4/6,,
(257)
{16}3,5,3,5,2,6,2,6,1,8,2,7,1,8,2,7,1,2,3,4,7,6,5,4,8,7,6,5,1,8,7,6,
{12}5/3,3,3,1,1,1,7,7,7,5,5,5,
{16}3,2,1,8,7,6,5,4,3h[8:3],,1,,8,,7,,
(263)
{16}6/2,,2,,4,,4,,1-5[8:1],8,1,8,1,,6,,3/7,,7,,5,,5,,8-4[8:1],2,8,2,8,,3,,1/5,,1,,7,,7,,3,,3,,6-1[8:1],5,7,4,6,,2,,3,,4/6,,7,,1/8,,2-5[8:1],4,3,,
(269)
{16}1-6[8:1]/2,,,,4/1,,3>8[8:1],,,,5,,4-1[8:1],,,,6,,5>2[8:1],,8,,7,,6p4[4:1],,1,,8,,7,,6<1[8:1],,,,3/6,,2V46[4:1],,,,4,,7>6[4:1],,8,,1bq7b[4:1],,,,,,,,2b,,,,1,8,1,8,
(271)
{16}1>3[8:1],,5,4,1-4[8:1],,6,5,1-5[8:1],,7,6,1,,8,,
{16}8<6[8:1],,4,5,8-5[8:1],,3,4,8-4[8:1],,2,3,8,,1,,
{16}1<7[8:1],,6,5,1-6[8:1],,5,4,1-5[8:1],,4,3,1,,7,,
{16}4b/6b,,,,1,2,3,4,7,6,5,4,1,7,1,7,
(277)
{16}1-5[8:1],,6-1[8:1],,1,,6,,3-8[8:1],,7-3[8:1],,3,,7,,
{16}2-5[8:1],,2,,8-4[8:1],,8,,1-5[8:1],,1,,7-4[8:1],,7,,3,,2,,1<3[4:1]/5,,5,,1/5,,,,1,8,7,6,5/1>5[4:1],,1,,5,,6,,7V51[4:1],,,,7b/1b,,2,,
(281)
{16}3>8-4[4:1],,,,3/8,,7,,6pp8<4[4:1],,,,4/6,,3,,2v5[8:1],,3,,2,,1,,4V61[4:1]/8,3/7,2/6,,
{16}1,,2,,3v8V25[4:1],,,,3/8,,7,,6qq4<1[4:1],,,,6/1,,2,,3-8[8:1],,2,,3,,4,,5/2,,,,7/8,6,5,4,
(293)
{16}1bV35[4:1],,,,1/5,,6,,7V51[4:1],,,,7/8,,1,,2>5[8:1],,2,,8-4[8:1],,8,,1,,1,,2/6,,2/6,,7qq5[8:1],,7,,3qq1[8:1],,3,,6,,6,,2,,2,,7v4[8:1],,7,,3>2<1<8<7<6>5>4b[4:1],,3,,5,,,,1x,,8,,
(311)
{16}7<5[8:1],,8,,7,,1>3[8:1],,8,,1,,8-4[8:1],,4,,8,,3,,3/5,,2/6,,1-5[8:1]/7,,8,,1,,8<6[8:1],,1,,8,,2>4[8:1],,1,,2,,1-5[8:1],,5,,1,,4,3,2,1,8,7,6,5,4b/8b,,,,8,,8,,
(317)
{16}1/7,,1/7,,2/6,,2/6,,3/5,,3/5,,4/6,,4/6,,3/7,,3/7,,2/8,,2/8,,1,,1,,8,7,6,5,4/8,,4/8,,1/5,,1/5,,2/6,,2/6,,3/7,,3/7,,4/8,,4/8,,1/5,,1/5,,2/6,,2/6,,3/7,,3/7,,4b-1[2:1]/8b-5[2:1],,,,,,,,,,,,,,,,4b-7[2:1]/8b-3[2:1],,,,,,,,,,,,,,,,8bz4[4:5]*s4[4:5]/4b,,,,,,,,,,,,,,,,,,,,,,,,,,,,,,,,
{1}8b,,,,,,,,,,,
{8},,,
(140)
{16}E2,,,,E3,,,,
{32}E7,E6,E5,,
{16}3,,4,,3h[2:3],,,,,,,,,,,,,,,,,,
{16}B4,,B5,,B6,,B7,,
{32}E3,E4,E5,,
{16}6,,5,,6h[8:13],,,,,,,,,,,,,,,,,,
{16}B7,,,,B1,,,,
{32}E6,E5,E4,,
{16}8,,7,,6h[2:1],,,,E5,,E4,,E3,,E7,,E6,,E5,,E4,,1,,2,,3,,4,,5,,,,7,,7h[8:3],,B8,,1,,
(118)
{16}2,,
(97)
{16}3,,
(116)
{16}4/5,,6,,7,,8,,E2,,E3,,E4,,E5,,
(123)
{32}E8,B8,B1,,
{16}4,,3h[4:1],,,,B4,,B5,,6h[8:3],,,,,,E8,,,,B1,,,,B3,,,,E5,,
(116)
{16}7,,6,,5,,C,,8,,7,,6,,5,,,,,,B4,,3h[4:1],,,,B1,,B8,,,,
(109)
{16}1,,5,6,7,,3,,3h[8:1],,C,,4h[8:1],,E7,,5h[8:1],,E8,,8,,8h[8:1],,E6,,4,,3,,2,,
(101)
{16}7,,6,,5,,4,,1h[8:1],,E4,,5,,6,,7h[1:1],,E5,,E6,,E7,,E8,,E1,,E2,,E3,,
(100)
{16}3,,4,,5,,6,,,,,,,,,,,,,,,,,,,,,,,,,,
(94)
{16}3,,4,,5,,6,,,,,,,,,,,,,,,,,,,,,,,,,,
(89)
{16}E4,,B4,,B5,,E6,,,,,,,,,,,,,,,,,,,,,,,,,,
(85)
{16}E4,,B4,,B5,,E6,,,,,,,,,,,,,,,,,,,,,,,,,,
E
