&title=明日でいいから
&artist=Happy Clover
&first=-0.53
&des=reflectW
&lv_5=12
&inote_5=(130)
{1},
{16}3h[4:1],,,,5h[4:1],,,,4,6,,3,,,8,1,
{16}8<4[16:3],,,,,,3qq8[16:5],,,,8,,7,,6,,
{16}5,,1,8,2h[4:1],,,,5,,,34,,,57,,
{16}4-1[8:1],,,,6,,6pp1[16:5],,,,1,,2,,3,,
{16}4-8[8:1],,,,34,,,,5-1[8:1],,,6,5,,7<8[16:5]*>6[16:5],,
{16},,7,,,,,,,,25,,3,4,3,,
{16}2-5[8:1]/5-8[8:1],,,,25,,,,,,4h[4:1]/6,,7,,8h[4:1],,
{16},,4,,3,,25,,46,,,1,8,,2h[8:1],,
{16}1-5[8:1],,,,18,,,,8-4[8:1],,,7,8,,6h[8:1],,
{16}1>5[4:1],,,,5<1[4:1],,,,1>5[4:1],,,,5,,,,
{16}1h[4:1],,,,3,,7,,56,,2,,34,,1,,
{16}2-6[16:1]/8,,,5-8[16:1],,,5b,,,,24,,2,,17,,
{16}7h[4:1],,,,5-1[8:1],,,,1,,,37,,,46,,
{16}5h[16:3],,,2h[16:3],,,4,,,,75,,7,,82,,
{16}2h[4:1],,,,4-8[8:1],,,,8,,,62,,,53,,
{16}48,,6,5,7,,48,,,,43,,2,,56,,
{16}7^2[8:1],,,,1-5[8:1],,,,5,,,37,,,28,,
{16}1h[16:3],,,6h[16:3],,,8,,,,75,,6,,42,,
{16}3^6[8:1],,,,6,,,7,8,,5w1[16:2],,,,5,,
{16},,28,,37,,4/6h[48:17],,,,,,,,,,
{8}3-1[8:1]/4-8[8:1],,,,6-8[8:1]/5-1[8:1],,,,
{4}3z7[8:4],6,6,6,
{8}3-1[8:1],,4-8[8:1],,5-1[8:1],,6-8[8:1],,
{4}6b/4b-2[8:1],4b/6b-8[8:1],6b/1b-4[8:1]*-6[8:1],1b,
{16}3-6[8:1]/7-2[8:1],,26,,37,,,,4-1[8:1],,,,5-8[8:1],,,,
{16}5b/2b,,,,3-8[8:1],,2,,7-4[8:1],,6,,1-5[8:1],,2,,
{16}1b,,,,6,,6,,3/5h[4:1],,,,2V48[16:5],,4,,
{16},,8,,7,,6pp5[8:3]*<5[8:3],,,,,,,,,,
{16},,,,,,,,,,{32},
(240)
{8}1b,,,,3,,
(120)
{16}24,,7,8,7,,6,5,6-1[8:1],,1-6[8:1],,6,,4,,
{16}3,,3,4,2,,2,1,3-8[8:1],,8-3[8:1],,3,,7,,
{32}5,4,3,2,1,8,7,6,5h[8:1],,,,
{16}3,,3/5q1[8:1],,2,,35,,4,4,
{16}8,,3,3,7,,2,2,6-8[8:1],,8-4[8:1],,6,,2,,
{32}1,2,3,4,5,6,7,8,1h[8:1],,,,
{16}7,,7/1q5[8:1],,2,,71,,7,5,
{16}6,,2w6[8:1],4,3,,2b,,,,18,,18,,2,3,
{16}4,,8,7,6-2[8:1]/5>6[4:1],,,,56,,,,,,46,,
{16}1,,2-6[8:1]/8-4[8:1],37,4>5[4:1]/6<5[4:1],,28,,,,,,,,7,,
{32}15,2,3,4,5,6,7,8,1pp1[4:1]*qq1[4:1],2,3,4,5,6,7,8,1b,,,,,,,,,,,,3h[8:1],,,,
{16}5,,6,5,7,,7,8,6-1[8:1],,1-6[8:1],,6,,2,,
{32}4,5,6,7,8,1,2,3,4h[8:1],,,,
{16}6,,6/4p8[8:1],,7,,64,,5,5,
{16}1,,6,6,2,,7,7,3V15[8:1],,1,,3,,7,,
{32}8,7,6,5,4,3,2,1,8h[8:1],,,,
{16}2,,2/8p4[8:1],,7,,28,,2,3,
{16}1-5[8:1],,4-8[8:1],,1,,4,,1p5[8:1]*v4[8:1],,,,1b,,,,
{16}35,,2,,2,,46,,7,,6,5,6,,3,4,
{16}3b-1[8:1],,,,7b-5[8:1],,,,4,,,26,,,8,,
{1}3qq4[16:5]/5pp4[16:5],
