&title=Dark Prism
&artist=Tsukasa
&first=0
&des=NekoMuseigen
&lv_5=13
&inote_5=(149)
{1},
{4}4-8[16:2],,
{16}1h[16:3],,,7h[16:3],,,3h[8:1],,
4,,2-5[8:1],,,,5,,6-2[16:2],,,,2,,,,
31,,8-4[8:1],,,,4,,3-8[8:1],,,,8,,,,
71,,2-6[8:1],,,,6,,5-2[8:1],,,,2,,,,
31,,8-3[8:1],,,,3,,4h[16:3],,,6h[16:3],,,2h[8:1],,
8,,7-4[8:1],,,,4,,3>8[8:1],,,8,,,7,,
16,,2-5[8:1],,,,5,,6<1[8:1],,,1,,,2,,
38,,7-3[8:1],,,,3,,2<7[8:1],,,7,,,6,,
5v6[8:1],,1v2[16:2],,,,,,8h[16:3],,,4h[16:3],,,6h[8:1],,
3-1[8:1],,4,,5,,7-5[8:1],,8,,1,,4-2[8:1],,5,,6,,8-6[8:1],,1,,2,,
5-3[8:1],,6,,7,,1-7[8:1],,2,,3,,5V31[8:2],,6,,7V16[8:2],,,,,,,,2h[16:4],,,,1,,3,4,
3-8[16:2],,,7h[16:2],,,7,,1/6,,,,
6-8[8:1],,5,,4,,2-4[8:1],,1,,8,,5-7[8:1],,4,,3,,1-3[8:1],,8,,7,,
4-6[8:1],,3,,2,,8V24[8:2],,7,,6,,5V74[8:2],,,,,,,,3h[8:2],,,,4,,
6,5,7b/4b,,,5b/2b,,,1b/8b,,
27,,3,4,,2,1,,3h[16:6]/8,,,4,,,6,,74,,6,5,,7,8,,6h[16:6]/1,,,5,,,3,,
25,,1,8,,3,4,,2h[16:6]/5,,,7,,,1,,83,,6,5,,8,1,7<3[16:3],2h[8:1],,,2h[8:1],,,2,,
13,,2,4,,4,6,,6,8,,8,2,,73,,64,,5,3,,3,1,,1,7,,7,5,,64,,
73,,8,2,,2,6,,6,4,,4,8,,17,,26,,3,7,,7,1,8,
2h[8:1],,,3h[8:1]/5h[8:1],,,46,,5v2[8:1]/7v2[8:1],,,,,,,,
1h[8:1]/3h[8:1],,,8h[8:1]/2h[8:1],,,17,,8v3[8:1]/6v3[8:1],,,,,,,,
2h[8:1]/4h[8:1],,,3h[8:1]/5h[8:1],,,46,,5q1[8:1]/7v1[8:1],,,,,,,,
8h[8:1]/2h[8:1],,,7h[8:1]/1h[8:1],,,86,,7p3[8:1]/5v3[8:1],,,,,,,,
2h[8:1]/4h[8:1],,,3h[8:1]/5h[8:1],,,46,,
5/7h[16:3],,,8,7,,51,,4/2h[16:3],,,1,2,,48,,
5/6h[16:3],,,7,6,,52,,4/3h[16:3],,,2,3,,74,,
6,5,6,8,5,4,5,1,4,3,4,2,5,4,5,3,
6b/4b,,13,1b/3b,,68,6b/8b,,35,3b/5b,,28,2b-5[8:1]/8b-5[8:1],,3b/7b,,
{4}2q5[8:29]/8p5[8:29],,,,,,,,,,,,,,,,,
{8}3h[8:3],,,4h[8:3],,,5h[8:3],,,6h[8:4],,,,{16}5,6,5V37[4:2]*V73[4:2],,,,
{8},,,,,,6,5,4w8[16:5],3,{16},,,,,,,,
{8}
26,3,4h[8:12]/7,,5,5,,3,3,,6,6,,8,8>4[8:2],,
7,6,5h[8:12],,4,4,,6,6,,3,3,,1,1qq6[8:6],,
2b,2,2,2,3,3,3,3qq8[16:9],4b,4,5,5,6,6,7,7/1,
{16}
6b,2,7,3,8,4,1,5,8b,4,7,3,6,2,5,1,
8h[8:1]/4h[8:1],,,2h[8:1]/6h[8:1],,,62,,
15,8,7,6,51,4,3,2,
1b/5bqq5[8:2],,6,7,8h[8:3],,,,,,1,,27,,3/6,,54,,3>8[8:1],4,,4,3,,4<7[32:5],,,,8,1,2,3,
4/8qq6[16:3],,1,2,3h[8:3],,,,,,4,,53,,6/2,,17,,7<4[8:1],8,,8,7,,8q4[16:2],,,,5,6,7,,
2pp3[16:3],,8,7,6h[8:3],,,,,,5,,46,,3/7,,82,,2>5[8:1],1,,1<6[32:4],2,,1v4[8:1],,,,1,,5,6,
7h[8:3],,5>2[8:1],,,,5<8[8:1],,,,1s5[8:2],,,,5z1[8:2],,,,,,,,5V31[16:3]*V71[16:3],,5,,,,,,,,
8/1q5[8:1],,2,7,1<3[16:5],,,,,,3,,2,,1,,78,,6-2[8:1],1,,1,6,,1>4[32:5],,,,5,6,7,8,
1/5V31[16:3],,4,6,5<2[16:5],,,,,,2,,3,,4,,56,,7-3[8:1],3,,3,7,,4p8[32:4],,,,7,6,5,,
5/2q6[8:1],,3,6,2qq3[16:5],,,,,,4,,5,,6,,72,,8-4[8:1],1,,1,8,,2h[8:3],,,,1,8,7,6,
5b/3b-7[8:1],,5,,5,,5,,5b/2b-6[8:1],,5,,5,,5,,5h[8:1]/1h[8:1],,,6h[8:1]/2h[8:1],,,3/7,,
4/8,5,6,7,8/4,15,26,73,4b/8bp4[16:3],,,,
{8}4,3,2,1h[8:3],8,7,6h[8:3],5,4,3h[8:3],2,1,8>3[16:2],7,6,5<3[8:6],,4,,4,,4,,4-8[8:1],,45,
{16}6h[16:3],,,1,6<1[8:1],,2,,3h[8:2],,{8}
,8h[8:3],1,2,3h[8:3],4,5,6h[8:3],7,8,1h[8:3],2,3,4>1[16:2],5,6,7<2[16:7],,1,,1,,1h[8:1],
{16}8b,4,6h[8:2],2b,,,1b,5,3h[16:3],7b,,4b-1[8:1],6,8,2b,,
