&title=海神寓拝
&artist=sasakure.‌UK
&first=-0.089
&des=sasakale
&lv_5=10
&inote_5=(100){4},{1},,{4},,{8},5<8[4:1],
,,,,4h[8:1],2,,4<7[8:1],
{4}6h[8:1],{8}8,1>4[8:1],{4}2h[8:1],{8}1-6[8:1],6-3[8:1],
7h[8:3],,,5,3-8[8:1],1h[8:1],,7-4[8:1],
{4}5h[8:1],{8}3-6[8:1],6<1[4:1],,,,8<5[8:1],
6,4,2,4-7[8:1],{4}5h[8:1],{8}8-3[8:1],1h[8:1],
,2,,5<8[8:1],5,5h[8:1],,7-3[4:1],
,,,,,5b,,4h[8:1],
6h[8:1],3h[8:1],5h[8:1],4h[16:3],{32},,5,6,{16}7,8,{8}8-3[8:1],3-6[8:1],
1-4[8:3],1,{16},,,,,,,,,,3,4,
2,3,{8}4,{16}6,5,7,6,{8}5h[8:1],,,2h[8:1],
8h[8:1],1h[8:1],7,8h[16:3],{32},,1,2,{16}3,4,{8}4>1[8:1],1-4[8:1],
5-8[8:3],5,{16},,,,,,,,,,6,5,
4,5,{8}3,{16}3,4,5,4,{8}6h[8:1],{16}3,4,5,4,5,6,
7,6,5,6,5,4,1,3,4,8,5,6,3,7,5,2,
4,{32}6,5,{16}6,4,3,4,2,5,3,4,5,6,5,7,4,6,
5,4,2,3,4,7,6,5,3,4,5,7,5,6,4,5,
3,4,1,4,3,5,1,4,3,5,4,6,5,8,5,6,
4,5,2,4,3,7,5,6,2,7,1,8,2,7,1,8,
3,6,4,5,{8}3h[4:1],2>5[16:1],1,8,{16}8>3[8:1],8,,,{8}6,
5-8[16:1],4,3,{16}1<6[8:1],1,,,{8}4,3-8[16:1],
2,4,{16}4<7[16:1],4,,,{8}2,3-7[16:1],4,5,
{16}8<5[16:1],8,,3,{8}2,{16}1>4[8:1],1,,,{8}5h[8:1],{16},,,,6<1[8:1],
4,5,3,{8}6,4h[8:1],{16},,,,4>1[8:1],5,3,6,
{8}4,{16}8b,6,5,6,1b,4,2,4,8b,6,4,6,1b,4,
2,4,1b,6,5,7,3b,8,3,4,{8}5<8[4:1],,,,,,3h[4:1],
4,5,6h[4:1],5,
4,4>1[8:3],,5,5,6,7,8-5[8:1],
{2}8-3[8:1],{8}5h[8:1],3,,2>5[4:1],
2,5,6<1[4:1],6,3,4,5h[8:1],3,
4,5<8[4:1],{16},,,,,,,,,,,,,2-5[16:3],
,,,,,,,,,,,,,,,,,,6,
5,{8}4,,3h[8:1],{4}7h[4:1],
{8}1,1h[4:1],,5h[8:1],6h[8:1],8h[8:1],4h[8:1],2-6[8:3],
,,,,,3<5[4:1],{16},,,,,,,,3,
4,{8}5,,6h[8:1],{4}2h[4:1],
{8}8,8h[4:1],,4h[8:1],3h[8:1],1h[8:1],5h[8:1],7<4[8:3],
,,,,,7-3[4:1],{32},,,,,,,,,,,,,,,,5,
4,{16}5,3,7,2,4,3,5,4,4,6,6,
5,7,2,8,5,6,4,5,3,6,5,4,{8}3<6[8:1],5h[4:1],
,,5-2[8:1],2-7[8:1],7-4[8:1],{16},,,,2,2,
3,4,5,4,5,6,7-4[32:3],5,4,3,{8}2,{16}2-5[32:3],5,6,7,
{8}8,{16}7<4[32:3],4,3,2,{8}1,{16}1>4[32:3],5,6,7,{8}8-4[4:1],8h[4:1],
,,5,3,1,8>3[8:1],3<5[8:1],5<8[8:1],
,,5h[8:1],1b,{16}3,5,6,5,2,7,1,6,
3,4,{32}7,6,{16}5,3,6,2,4,3,8,2,7,5,6,8,2,
5,8,1,6,3,8,4,3,6,7,2,1,4,3,6,8,
4,5,{32}4,3,{16}4,2,5,1-6[16:1],6>4[16:1],2,7,{8}1b,{16}8-3[16:1],3<5[16:1],7,2,
{8}8b,{16}1<6[16:1],6>4[16:1],2,7,{8}1b,{16}8>3[16:1],3<5[16:1],7,2,{8}8b,1-5[16:3],
{16},,,,6,6,3,4,5,6,{8}7-4[8:1],4-1[8:1],1-6[8:1],
,,,5<8[8:9],,,,,,,,,,,,1>4[8:9],
,,,,,,,,,,,6,
5,4h[8:1],5,4,
3h[8:1],4,5,6h[8:1],5,4,3h[8:1],{32}6,5,{16}4-8[16:17],
{1},{4},{8},6h[8:1],
4h[8:1],5h[8:1],3,{16}4-7[8:1],2,
{8}6,3,{16}1>4[16:1],6,{8}2,1,{16}7,1h[16:3],{8}5,3h[8:1],
7h[8:1],1h[8:1],3,{16}5-2[16:1],7,{8}3,6,{16}8<5[16:1],6,{8}2,
8,{16}2,8h[16:1],{8}4,6>3[8:1],{4}4h[8:1],{8}2-6[8:1],5h[8:1],
,7<4[8:1],{4}3h[8:1],{8}2-6[8:1],1-5[8:1],{4}8-4[8:1],
{8},6,4,2,8
||这是一个标记~
,7-4[8:1],6-3[8:1],5-2[8:1],
,,5,1b,
E
