&title=オッド♡ラヴィ
&artist=Lapix feat. PANXI
&first=0.06
&des_4=心白-HW
&lv_4=11+
&des_5=iimachi chart team
&lv_5=14
&des=iimachi chart team
&inote_4=(172){4},,,,{1}1b/7b<4[4:5],
{4},,3,2,
{1}4/1-5[4:3],
{4}6,7,8,1,
{1}8/2q5[4:3],
{4}7h[4:3],{8}5,4,,4,{4}3,
{1}2/6p4[4:3],
{4}1h[4:3],{8}3,4,,4,{4}5,
{2}6/2pp4[2:1],{4}7,7,
{1}2h[4:3]/8p4pp6[2:1],
{16}3h[8:1]/5h[8:1],,,4h[8:1]/6h[8:1],,,{8}5/7,{16}6h[8:1]/4h[8:1],,,5h[8:1]/3h[8:1],,,{8}2bqq5[8:5]/4bqq5[8:5],
,,,,,,,,{4}6/4,
8/7,1/2,{8}3,4,
{4}3/5,7/5,1/3,2/7,
{8}8,8,{4}1/7,{8}6,6,{4}7/5,
{8}4,4,{4}3/5,{2}2-5[8:1]*-4[8:1],
{4}E6,E7,{2}4h[4:1]/E8,
{4}E4,E3,{2}5h[4:1]/E2,
{4}8x/7x,3x/4x,1x/2x,6x/5x,
E3,E7,{2}Cfh[4:1],
{1}7<4[4:3],
{4}A3,B3,{2}Ch[4:1],
{1}2>5[4:3],
{4}A6,B6,{2}Ch[4:1],
{4}8<5[4:1],,,2,
1>4[4:1],,,7,
8-4[8:1],1,{16}2,,,3,,,{8}4,
{2}4w8[8:1],Cf/B6/B2,
{16}3h[8:3],,,4,,,{8}5,{16}6h[8:3],,,5,,,{8}4,
{4}5/3,6/4,{2}1h[4:1]/8h[4:1],
{16}7h[8:3],,,5,,,{8}3,{16}2h[8:3],,,4,,,{8}6,
{4}4/7,5/2,{2}8-5[8:1]/1-4[8:1],
{4}6V47[2:1],3,3,3,
3V15[2:1],7,7,7,
{8}8b/4b,8b/4b,{4}4bv1v4b[2:1]/8b-5-8b[2:1],,,,B6/B2/Ch[2:1],
,,{1}2qq5[2:3]/6pp4[2:3],
,B4/E4/B5/E6,
{2}E3/B2/B1,B8/B7/E7,
{4}1h[4:1],3h[4:1],5h[4:1],7h[4:1],
1h[4:1],7h[4:1],3h[4:1],5,
{16}3x,5x,3x,5x,3x,5x,3x,5x,2x,6x,2x,6x,2x,6x,2x,6x,
{4}2x-6[4:1],,,Cf,
7b-4[8:1],3-8[8:1],6-1[8:1],2-5[8:1],
7-4[8:1],3-8[8:1],6-1[8:1],2,
3-6[8:1],7-2[8:1],4-1[8:1],8,
{8}7-4[8:1],7,2-6[8:1],2,{2}8w4[8:1],
{4}2bx/6bx,{8}1,1,2,2,3,3,
4,4,5,5,6,6,7,7,
{4}8/1,2/3,4/5,6/7,
A1/A2/D2,A8/D8/A7,{2}Cfh[4:1],
{4}6b-1[8:1],3-8[8:1],7-4[8:1],2-5[8:1],
6-1[8:1],3-8[8:1],7-4[8:1],2,
3-8[8:1],1-6[8:1],5-2[8:1],7,
{8}6-1[8:1],6,3-7[8:1],3,{2}5w1[8:1],
{4}7bx/3bx,{16}B3,B4,B5,B6,B7,B8,B1,B2,E3,E4,E5,E6,
E7,E8,E1,E2,D3,D4,D5,D6,D7,D8,D1,D2,{4}D3/C,
{16}4x,5x,4x,5x,3x,6x,3x,6x,2x,7x,2x,7x,1x,8x,1x,8x,
{4}1x-5[4:1],,,Cf,
{16}7-4[8:1],,,8,,,{8}1,{16}2-5[8:1],,,1,,,{8}8,
{16}7-4[8:1],,,8,,,{8}1,{4}2bx/3bx,6bx/5bx,
{16}7<4[8:1],,,8,,,{8}1,{16}2>5[8:1],,,1,,,{8}8,
{16}7<4[8:1],,,8,,,{8}1,{4}2bx/3bx,6bx/5bx,
7-3[8:1],8,2-6[8:1],1,
8,1/7,2/6,5/3,
{2}4v2[8:1],4pp6[8:1],
4-8[8:1],Cf/B6/B2,
{16}4/7-4[8:1],,,8,,,{8}1,{16}5/2-5[8:1],,,1,,,{8}8,
{16}4/7-4[8:1],,,8,,,{8}1,{4}5bx/2bx,3bx/6bx,
{16}4/7<4[8:1],,,8,,,{8}1,{16}2>5[8:1],,,1,,,{8}8,
{16}7<4[8:1],,,8,,,{8}1,{4}5bx/2bx,8bx/7bx,
6-2[8:1],4,3-7[8:1],5,
{8}6,6,{4}5/7,2/4,1/8,
{8}2b/7b,2b/7b,{4}7bV15b[2:1]/2bV84b[2:1],,,,E7/B7/B6/Cfh[4:3],
,,,7-4[8:1],
1-5[8:1],8-4[8:1],
2-5[8:1],7,8/1,6/3,
2x-4[8:1],6x-8[8:1],2x-4[8:1],1x-5[8:1],
2x-4[8:1],6x-8[8:1],2x-4[8:1],1bxw5b[8:1],
,2-5[8:1],8-4[8:1],1-5[8:1],
{2}7-4[8:1]*-3[8:1],2-5[8:1]*-6[8:1],
{8}3b/7b,3b/7b,{4}3b>8>3b[2:1]/7b<4<7b[2:1],,,,B2/B3/E3/Cfh[4:3],
,,,2-5[8:1],
8-4[8:1],1-5[8:1],
7-4[8:1],2,1/8,3/6,
7b-5[8:1],3b-1[8:1],7b-5[8:1],8b-4[8:1],
7b-5[8:1],3b-1[8:1],7b-5[8:1],8bw4b[8:1],
,7-4[8:1],1-5[8:1],8-4[8:1],
{2}2-5[8:1]*q6[8:1],7-4[8:1]*p3[8:1],
{8}6b/2b,6b/2b,{4}6b-1b[8:1]/2b-5b[8:1],{8},,4bx/8bx,6bx/2bx,
E
&inote_5=(172){4},{8},,,,,,4bh[8:1],
5,3,6h[8:1],5,7,3h[8:1],5,
4,7h[8:1],5,6,4,{16}3,4,{8}3,3,
8h[8:1],1,7,2h[8:1],1,3,7pp4[4:3],1qq5b[8:5],
,,,,,,,,{4}4/5b-7[8:1],
{8}1,2,{16}3,8,{8}3,{4}1/7,
4/2b-6-4[4:1],{8}6,7,8,1,{4}2/8,
5/4b-2[8:1],{8}8,7,{16}6,1,{8}6,{4}8/2,
5/7b-3-5[4:1],{8}3,2,1,8,{4}7/1,
3/4b-6[8:1],{8}1,2,{16}3,8,{8}3,{4}4/6,
8/7b-5-1[4:1],{8}1,2,3,4,{4}3/7,
{16}2bh[8:1]/C,,,8bh[8:1]/C,,,{8}1b/C,{16}7bh[8:1]/C,,,1bh[8:1]/C,,,{8}8b/Cf,
{16},,,,,,,,4w8b[8:1],5,{8}3,,,{4}2b/6b,
{16}3,4,{8}2,5/6,7,{16}3,5,{8}1,
2/8,3/7,6h[8:1],4,3/5,4/6,{4}7/5w1[8:1],
5b,{16}7,8,{8}6,1/2,3,{16}7,1,{8}5,
6/4,7/3,2h[8:1],8,7/1,2/8,{4}3/1,
{8}2-5[8:1],{16}8,8,{8}2,6,7-4[8:1],{16}1,1,{8}7,3,
2-6[8:1],{16}8,8,{8}2,7h[4:1],,5b,{4}8b/2b-7b[8:1],
2b/6b-3b[8:1],6b/1b-4b[8:1],{8}1b/5bV31b[16:3],6b,{4}5b/7b,
{8}8b,3b/5b,7b/1b<3b[4:1],4b/6b,{2}Cf,
{1}5xpp4<8[4:7]*qq4>1b[1:1],
{2},Cfh[4:1],
1bx>4qq5[4:5],{8}6,,,6,
,6,{4}7,{2}7-3[8:1],
{8}5<8qq5[2:3],5,,,{4}4,3,
,3,{8}2,2,,,{4}1-5[8:1],
7h[4:1],{16}4,,,3/5,,,{8}2/6,
{4}8-4[8:1],3>6b[4:1],{8},,,,7b,
{16}7,5,{8}6,3,2/4,{16}1,8,{8}1,7,
5/6,{16}7,8,{8}7,1,2-5[8:1]/5-8[8:1],6,{4}2/5,
{8}3b,{16}2,4,{8}3,6,5/7,{16}8,1,{8}8,2,
4/3,{16}2,1,{8}2,7,6-1[8:1]/5-1[8:1],4,{4}5/6,
{8}2b/8b,{16}3,5,{8}4,6,7/8,{16}6,4,{8}5,3,
4/2-5[8:1],1,8/2,7,{16}4/6,3/7,{8}2/8,{4}2/8<5[8:1],
{8}8b-4b[8:1]/2b-6b[8:1],1b,{4}8b/2b,3v5[8:1],{8}5,7h[4:1],
{24},,,4,6,3z7b[24:7],{4}5s1[4:1],,,1h[8:1]/7<2>7[2:3],
1h[8:1],1h[8:1],1h[8:1],
8h[8:1],8h[8:1],8h[8:1],8h[8:1],
1-4[8:1],7-2[8:1],5-1[8:1],{8}8,7<4[8:1],
6b,3>8[8:1],,7<4[8:1],6b,3>8[8:1],,7,
{4}6bpp3b[2:1],1,2,4,
2bqq5b[2:1],5,6,7,
{16}8,4,8,4,7,3,7,3,6,2,6,2,5,1,5,1,
{4}4bpp4[8:3]*qq4b[8:3],,,Cf,
1b-4b[8:1],8b/1b-6b[8:1],2b/1b-3b[8:1],8b/1b-5b[8:1],
2b/1b>4b[8:1],8b/1b<6b[8:1],2b/1b-5b[8:1],1b/8b,
{8}4b<7b[8:1],3b,{4}2b/4b>1b[8:1],6b/4b-8b[8:1],4b/2b,
{8}1b-4b[8:1]/7b-4b[8:1],2b/6b,{4}7b/1b<3b[4:1],1b,Cf,
{8}1/2,{16}3,4,{8}3,6,7/8,{16}6,5,{8}6,3,
2/8,{16}3,5,{8}4,6,{16}1v4b[8:1]/7v4b[8:1],2/6,{8}3/5,{4}1b/7b,
{8}5,6,4/7,3,{16}2,1,{8}2,3/8,7,
{4}6/1-5b[8:1],1/7-3b[8:1],{2}7/4>1[8:1]*<7[8:1],
{4}8b-5b[8:1],1b/8b-3b[8:1],7b/8b-6b[8:1],1b/8b-4b[8:1],
7b/8b<5b[8:1],1b/8b>3b[8:1],7b/8b-4b[8:1],8b/1b,
5b>2b[8:1],7b/5b<8b[8:1],3b/5b-1b[8:1],5b/7b,
{8}8b-5b[8:1]/2b-5b[8:1],7b/3b,{4}2b/8b>6b[4:1],8b,Cf,
1b/8b,{16}4,6,3,6,2,6,2,6,2,6,2,6,
1,7,1,7,1,7,1,7,2,8,2,8,2,8,2,8,
2,3,4,5,8,7,6,5,1,2,3,4,7,6,5,4pp3[16:7],
{4}3bqq4b[8:3],,,Cf,
{8}2b/8b,{16}3,4,{8}1,3/5,1/7,{16}6,5,{8}8,4/6,
1/2,{16}3,5,{8}1,4/6,{24}1b/8bV24b[16:3],7,6,5,,,{4}8b,
{8}6b,{16}7,8,{8}5,1/2,4/6,{16}2,1,{8}4,7/8,
3/5,{16}7,1,{8}5,2/8,{24}5b/4bV68b[16:3],3,2,1,,,{4}4b,
{8}2b,{16}3,4,{8}1,5/6,1/7,{16}6,5,{8}8,3/4,
{16}2,8,5,6,1,7,3,4,{4}1>4[8:1],{24}5bqq4b[16:3],6,7,8,,,{4}8b<5b[8:1],
8b,{8}1b/2b,{16}3,5,{8}3,7b/8b,
{16}6,5,{8}6,{24}4bqq1b[16:5],3/5,2/6,1/7,,,,,,,,,,,,,,,{8}7b,
{16}6,5,{8}8,6/4,8/2,{16}3,4,{8}1,5/3,
8/7,{16}6,4,{8}8,5/3,{24}8b/1bV75b[16:3],2,3,4,,,{4}1b,
{8}3b,{16}2,1,{8}4,8/7,5/3,{16}7,8,{8}5,2/1,
6/4,{16}2,8,{8}4,7/1,{24}4b/5bV31b[16:3],6,7,8,,,{4}5b,
{8}7b,{16}6,5,{8}8,4/3,8/2,{16}3,4,{8}1,6/5,
{16}7,1,4,3,8,2,6,5,{32}8b,7,6,5,4,3,2,1,{4}8bx<5[8:1],
{8}8b-4b[8:1]/2b-6b[8:1],1,{4}8b/2b,3bv5[8:1],{8}5,7b,
{16},,4>5b[8:3],3,{4}2,,Cf,
1b/8b,{16}2,4,3,4,1,5,4,5,2,6,5,6,
2,5,4,5,2,7,5,7,1,6,3,6,{4}1bx>4[8:1]/5bx<8[8:1],
5/1-5[8:1],{8}1/5,3,{24}1v6[8:1]/5v2[8:1],6/2,7/3,8/4,,,{4}1>4[8:1]/5<8[8:1],
5/1-5[8:1],{8}5/1,3,{24}5v2b[8:1]/1v6b[8:1],2/6,3/7,8/4,,,{4}1bx>4b[8:1]/5bx<8b[8:1],
{16},,,,7,5,6,5,8,4,5,4,1,3,4,3,
{24}8-4[8:1],7,6,2/5,,,{4}8/3,{24}2-6[8:1],3,4,5/7,,,{4}8/2,
{24}8b/4b,7,6,3b,,,5b/2b,6,{6}7,{48}1,,,8,,,{16}3,6,2,7,4,5,
{8}3b,5/6,8b,3/5,2b/8b,4b/6b,{4}2b-5b[8:1]/8b-5b[8:1],
2b/8b,{16}7,5,6,5,8,4,5,4,7,3,4,3,
7,4,5,4,7,2,4,2,8,3,6,3,{4}8bx<5[8:1]/4bx>1[8:1],
4b/8b-4[8:1],{8}8b/4b,6b,{24}8bv3[8:1]/4bv7[8:1],3/7,2/6,1/5,,,{4}8b<5[8:1]/4b>1[8:1],
4b/8b-4[8:1],{8}4b/8b,6b,{24}8b/4bw8b[8:1],7/3,6/2,1/5,,,{4}4bx,
{16}1b,8,5,6,5,6,5,6,2b,1,4,5,4,5,4,5,
1b,7,2,4,3,5,4,6,2b,7,3,5,{4}1b,
{24}8b/2b,7,6,3b,,,2b/5b,6,{6}7,{96}1b-5b[8:1],,,2,,,{32}3,4,5w1b[8:1],6,7,8,{8}1b,Cf,
E
