&title=Unsinkable Memory
&artist=打打だいず
&first=0
&lv_5=14
&des_5=T-tc万厘米
&inote_5=
(184){4},{16},,,,,,,,,,,,,8h[1:1],
,,,,,,,,,,,,,,,1h[1:1],
,,,,,,,,,,,,,,,2h[1:1],
,,,,,,,,,,,,,,,3h[16:15],
,,,,,,,,,,,,,,{1}4>4[1:2],
,4>4[1:2],
,4>5[1:2],
,5>5[4:7],
{4},,,,4h[4:1],
{8}5,4,,6,{4}3-8>2b[2:1],
{1}3b/5,
{4}6h[4:1],{8}3,6,,2,{4}7qq5b[4:1],
{1}7b/2,
{4}8h[4:3],4,{8},3,{4}2,
{8}1,1,3,{16}1,2,,2,{8}1,{16}3,8,3,8,
2,1,2,1,3,8,3,8,4,7,4,7,5,6,5h[8:5],6<8[16:5],
,,,,,,,,,,,,,,,,1b,
2,3,4,8b,7,6,5,1b,8,7,6,1b-3b[8:1],8,7,6,
{4}1b/5-7b[8:1],5/1b-4b[8:1],1/8b-6b[12:1],8/2b,
{16}1b,2,3,4,8b,7,6,5,8b,1,2,3,8b-2[8:1],7,6,5,
{4}8b/4-6b[8:1],3b-5b[8:1],7-5b[8:1]/3b-1[8:1],3/7b,
{16}1,8,1,8,2,7,2,7,3,6,3,6,4,5,4,5,
{4}4b-8[8:1],4-2[8:1]/7b-5[8:1],{2}7-2[8:1]/4b-1[8:1],
{16}3,8,3,8,2,1,2,1,3,8,2,1,3,8,2,1,
{32}2,3,4,5,6,7,8,1,2,3,4,5,6,7,8,1,2,3,4,5,6,7,8,1,2,3,4,5,{8}6<6[8:5],
,,,,{4}8x,7-3[8:1],
7,{8}2,1,,1,{4}8,
{8}7b,7,1b,{16}8,1,,1,{8}8,{24}1b,2,3,4>3>2<1<8[12:1],,,{8}7,
6,{4}7h[8:1],7-4[8:1],{8}7,8,
2b,2,1b,{16}2,3,,3,{8}4,{24}4b,3x,2x,1x>4[16:3],,,{8}6,
6,{4}5,{8}5,4,3,6,
6b,2,3b,{16}4,5,,5<1[8:1],{8}3,{4}3x-6b[8:1],
{8}3bx,2bx-5b[8:1],,2bx,{4}8bx-4b[8:1],{8}8bx,7bx-3b[8:1],
,7bx,{4}2bx<7b[8:1],{32},A3,D4,A4,D5,A5,{16}D6,{4}6bxh[8:3],
{8}8,1,{4}2/7,{8}4/3,5/1b,,6/5,
4/8b,4,5b,{16}7,5,,,{8}4,{24}7b,6,5,3,2,1,
{8}8bx>3[8:1],5,{4}8,{8}6h[4:1],3,{4}3b,
{8}5/4,3,8/1b,{16}8,7b,,1,{8}8,{16}2b,1,,,{8}2,
2,7,6h[8:3]/2<7[32:7],{32},,,,,,,,,,,,,A6,D6,A5,
D5,A4,D4,A3,D3,A2,{16}D2/E2,{4}1xh[4:3],8,7,
{8}8,8,2,2h[2:1]/1<3[4:1],{32},,,,,,,,,,,,,,D2,A1,
D1,A8,D8,A7,D7,A6,{16}D6/E6,{4}5xh[2:1],1,2-7[12:1],
2/4q8[12:1],4/1-6[12:1],1/5-2[12:1],5/1-4[12:1],
1/7-5[12:1],7/4-8[12:1],4/6-3[12:1],6/8h[4:1],
{32},1/5,2/6,3/7,4/8,5,6,7,8,1,2,3,4,5,6,7,8,D1,D2,D3,D4,D5,D6,D7,D8,D1,D2,D3,D4,D5,D6,D7,
{1}D8/8xw4[2:1],
{8}6-2>3-8-5b[1:2],4,4,4,,1,1,1,
,2,2,2,2,3,3,4,
5-1<8-2b[4:7],4,4,4,,3,3,3,
4,4,4,5,5,5,{4}5,
5-8z4b[4:7],{8}6x,6x,,7,7,7,
6,6,7,7,8,8,8,8,
8-5b[1:1],3,3,3,,4,3,2,
B2,B1,{4}B8,{32}E3,E4,E5,E1,E8,E7,{48}E6,2x,,{24}3x,4x,5x,1x,8x,7x,
6x,5x/1xh[24:17],,,,,,,,,,,{4}7,{12}8,8,2,
{4}2>6V42[2:1],7,1,8,
7h[4:3],{12},,,,,,1,1,7,
{4}7<3V57[2:1],2,8,1,
1h[4:3],{12},,,,,,8,8,1,
{4}1>5V31[2:1],5,1,5,
8h[4:3],{12},,,,,,1,1,8,
{4}8<4V68[2:1],4,8,4,
{1}4w8[2:5]*w8[2:5],
{8},,,,,,,,,,,,,,,,8,
8,{16}1,8,7,1,6-1[8:1],2,5,3,{4}4,
{8}2x,3-8[8:1],4,3/7bx,6-1[8:1],5,{4}3bx-8[8:1],
{8}3/7bx,6-1[8:1],5,6/2bx,3-8[8:1],4,{4}3/7bx-4[8:1],
{8}7/2bx,2-5[8:1],8,2bx,7-4[8:1],1,{4}7bx/2-6[8:1],
{8}7/2bx,8-4[8:1],1,2/8bx,1-5[8:1],8,{4}7/1bx,
{8}7bxp3[8:1],2,7/1,2bx>5[8:1],1,8/2,7bx<5[8:1],2,
7/1bx,2q6[8:1],1,2/7bx,8v5[8:1],2,{4}8bx,
{24}6/3,7,8,1,2,3,6,7,8,1,2,3,6,7,8,1,2,3,6,7,8,1,2,3>6[24:19],
,,,,,,{4}E6,E5,4xv1[32:3]*v1[32:3],
{32},Cf,,,,,,,{8}5xh[4:1],4,{16}3,5,{8}2,1/7p4[2:1],8,
{4}7/2,4>2[4:1],2<8[4:1],5-1[32:3],
{32}5,Cf,,,,,,,{8}7h[8:1],3,{24}7/3q6[2:1],6,{12}5,{24},,{8}5/3x,6,
{4}6<8[4:1],8-4[4:1],4>1[4:1],7-3[16:1],
{32}7,Cf,,,,,,,{8}8h[8:1],4,{24}8/5pp1[2:1],1,{12}2,,{4}5/1,
1x<6[4:1],6x-3-8-5-2-7[2:3],{2}1xh[4:1],
{6}A4,D4,A3,A4,D4,A3,
{24}1x,2x,3x,{96}4x,,,5x,,,{32}6x,7x,{4}8x/1bx,7b/8,2b/1-5b[32:3],
{32}1b/8,{96}Cf,7,,,,{12}6,,{4}8p5b[2:1],8,{8}5>3b[4:1],3x,
{4}3>7b[2:1],5x,4x,3x-7b[32:3],
{32}6,Cf`5,{16}4,,,{4}6pp4b[2:1],6/2,{8}4>2b[4:1],2x,
{4}2<8b[4:1],8x<6b[4:1],6x<8b[4:1],1x-5b[32:3],
{32}1b,Cf,,,,,,,{8}3/7p3[8:1],8,{4}1/7,{8}7/1-5[4:1],6,
{4}1/5<8[4:1],8-4[4:1],4>7[1:1],7<3b[4:3],
{1},{24}4/8b,
7/3,6/2,5/1,4,3,2,1,8,7,6,5,4,3,2,1,8,7,6,5,{48},,,,,,,,{16}4,
5,3,6,2,7,1,8,4,5,3,6,{4}3>8[8:1],
3/7-5[8:1],7/3>8[8:1],3/7-5[8:1],7/3,
{16}7,8,7,8,7,8,6,1,5,2,4,3,{4}6<1[8:1],
6/2-4[8:1],2/6<1[8:1],6/2-4[8:1],2/6,
{16}1,8,1,8,2,7,2,7,2,6,2,6,{4}2>5[8:1],
2/6-8[8:1],6/2>5[8:1],2/6-8[8:1],6/2,
{16}4,5,3,6,4,5,3,6,4,5,3,6,4,5,3,6,
{24}5x/2b,4,3,2,1,8,7,6,5,4,3,2,1,8,7,6,5,4,3,2,1,8,7,6,
1b/5,2,3,4,5,6,7,8,1,2,3,4,5,6,7,8,1,2,3,4,5,6,7,8,
{32}5b/1,4,3,2,1,8,7,6,5,4,3,2,1,8,7,6,5,4,3,2,1,8,7,6,5,4,3,2,1,8,7,6,
5,A4,A3,A2,A1,A8,A7,A6,{16}A5,E4,E3,E2,{32}E1,,,E8,,,,E7,,,,,{8}E6,
{32}E5,,,,,E4,,,,,,,,E3,,,,,,,,,{16}E2,,,,,{1}1<8<7<6>5>4>3>2<1[1:2],
,1<8<7<6>5>4>3>2<1[1:2],
{32},E8,B7,B6,{8}E6,,,,,,,{1}1<8<7<6>5>4>3>2<1[1:2],
,{32}1<8<7<6>5>4>3>2<1<8[1:2],
E1,B8,B7,{8}E7,{4},,,{32},E8,
B8,B1,{8}E2,,,,,,,{1}8<7<6>5>4>3>2<1<8[1:2],
,{32}8<7<6>5>4>3>2<1<8[1:2],
E1,B1,B2,{8}E3,{4},,,{32},E2,
B2,B3,{8}E4,,,,,,,{1}8<7<6>5>4>3>2<1[1:2],
{4},,,,8w4[1:2],
8h[4:7],
E
