&title=Star☆Glitter
&artist=セブンスシスターズ
&first=0
&des=DfC
&wholebpm=171
&demo_seek=76.7
&demo_len=32.7
&des_4=Jack
&des_5=ロシェ@ペンギン
&lv_6=12
&inote_6=(171)
{1},
{8}5,4,3,,4,5,6,,
4,3,2,,5,6,7,,
3,2,17,,26,,3pp8[4:3]/5,3/5qq8[8:5],
,,,,,,,,
1b-5[8:1]/5b,,6-3[8:1],,4,,{16}2,1,2,1,
{8}3V51[4:1],,5,,7V15[4:1],,1,,
4>1[8:1],,8<5[8:1],,2,3,46,5/7-3[8:1],
,4,4>8[4:1],,8<4[4:1],,5,,
1v6[8:1],,2,,48,48,3<1[2:1]/7q1[2:1],2b/6b,
,,,,,,{16}4,6,3,7,
{8}1b-5[8:1]*-7[8:1],,1b,,,4,6,18,
,53,,56,4/7V15[4:1],,2h,,
3-1[2:1],,,,,,,,
6-8[2:1],,,,,,,,
8-6[2:1],,,,,,,,
2V41[2:1],,,,5,,6,,
7-1[2:1]/8-4[2:1],,,,,,,,
4V25[2:1]/6V85[2:1],,,,,,,,
1s5[2:1]/8,,,,,,6p3[2:1],6,
,,,,,,2,2,
34,,35,,36,,3/7V15[2:1],7,
3,,3,,3,,35,35,
46,,45,,47,,4/8V25[2:1],8,
4,,4,,4,,47,36,
2/5pp5[4:1]*qq5[4:1],,,,,,34,25,
1p4[4:1]/6q3[4:1],,,,,5<4[8:5],,5h[8:5],
,,,,,,37,2/8-5[8:1],
,4/8v2[8:1],,7,7,,45,,
1b/8b,,26,2,3<6[8:1]/5,,7,8-4[8:1],
,1-5[8:1],,6-3[8:1],,2,2,,
35,4,56,5-2[8:1]/6,,7V15[8:3],,4h[8:3],
,,,3,24,,17,,
45,,36,6,5/7<4[8:1],7,8,1-4[8:1],
,6-8[8:1],,2-5[8:1],,1,,46,
4-8[4:1]/6,,8V25[8:3],,6,,7V14[8:3]*V15[8:3],7,
,,,,,,3>8[4:1]/4,3,
8q4[4:1],,4<7[4:1],,7q5[4:1],,5qq1[2:1],5,
,6,6,,8,,16,16,
7b-4[8:1]/8-4[8:1],,,,2b-5[8:1]/1-5[8:1],,,,
3b-8[8:1]/4-8[8:1],,,,6b-1[8:1]/5-1[8:1],56,,,
3/8-4[8:1],,28,,5/8-4[8:1],8,7,7>2[8:1],
,3<6[8:1],,6,,48,37,2h[4:1]/6h[4:1],
,,45,{16}3,4,3,,25,,16,,7V15[4:3]/8,,
{8},4,2bs6[8:3],,,,,,
34,,6,57,,1,2qq4[4:3]/8,,
,,5,,7,,6,,
17,,6,45,,2,3p6[2:1]/8p7[2:1],38,
,,,,,,56,,
4h[4:3]/7,,5,5,,3,3,,
5h[4:3]/2,,4,4,,6,6,,
7q4[4:1]/8>3[4:1],,,,,,45,4h[4:1]/5h[4:1],
,,45,,36,27,18,,
34,1,56,8,37,26,15,4/8pp4[2:1],
,7b,7b,,,{16}5,5,2b>5[8:1],,,,
{8}12,,2/6-1[8:1],2/6-3[8:1],,,8>7[2:1],8,
,7,8,1,1>4[8:1],,1<6[8:1]/7,,
13,,5-2[8:1]/4,5-8[8:1]/4,,,4-7[8:1],4-1[8:1],
,,8<5[8:1],,2/8-4[8:1],1,78,,
6pp1[8:3],,5,,2,3,48,1/5>8[4:1],
,6,6,,17,17,4-7[8:1]/5-7[8:1],,
4-2[8:1]/5-2[8:1],,4-8[8:1]/5-1[8:1],,45,,26,4p8[8:1]/8p4[8:1],
,48,,35,1b/8b,,7<4[8:1],,
78,,7/3-8[8:1],7/3-6[8:1],,,1<2[2:1],1,
,2,1,8,8<5[8:1],,8>3[8:1]/2,,
86,,4-7[8:1]/5,4-1[8:1]/5,,,5-2[8:1],5-8[8:1],
,,1>4[8:1],,7/1-5[8:1],8,21,,
3pp8[8:3],,4,,7,6,51,8/4<1[4:1],
,3,3,,28,28,4-8[8:1]/5,,
24,,71,82,8V25[4:3]/2V85[4:3],,,,
,,,,,,45,,
4q5[2:1]/5,,,6,6,,,8h[4:1],
,2h[4:1],,3,23,,15,,
1p8[2:1]/5,,,4,4,,,5h[4:1],
,6h[4:1],,7,67,,28,,
2p5[8:1]/8q5[8:1],,,,34,34,34,1b-5[8:1]/5b,
,1b/7b-3[8:1],,4b/7b,4-1[8:1],,4>5[2:1]/8,,
2b/4b,,,,,,{16}6,5,6,5,
{8}7V15[4:1],,1,,3V51[4:1],,5,,
6-3[8:1],,2-7[8:1],,7,6,5V71[4:1],,
1V35[4:1],,5pp2[8:3],5,,2<4[8:3],,3h[8:3],
,,,,18,27,3pp1[2:1]/6qq8[2:1],4b/5b,
,,,,,,{16}4,5,3,6,
{8}1b-5[8:1]*-7[8:1],,1b,,,24,56,4/8-4[8:1],
,68,,57,5/7V15[4:1],,2h,,
3bw7[4:7],,,,,,,,
