&title=Xetta
&artist=TangJuan VS Black Box
&first=0
&des=袖珍的小山雀9 VS RevoBleug
&lv_5=14+
&inote_5=(200)
{16}
,,,,,,,,,,,2s6[3:4]/6s2[3:4],,,,,,,,,,,,,,,,,,,,,,,,,,,,,
5,,,4,,,,,7>7[2:3],,,,,,,,,,,,,,,,8>8[2:3],,,,,,,,,,,,,,,,
1>1[2:3],,,,,,,,,,,,,,,,2>5[2:1],,,,,,,,,,,,,,,,
3>3[2:3],,,,,,,,,,,,,,,,2<4>1[2:3],,,,,,,,,,,,,,,,1<1[2:1],,,,,,,,,,,,,,,,
{8}6,6,5,5,4,4,3,3,
{12}
7,7,5,6,6,2,5,6,1,4,5,3,
{16}
8-4[8:1],,1,,5-2[8:1],,6,,7-3[8:1],,8,,1,,2,,
{12}
6,7,8,12,3,4,57,6,5,43,2,1,
{16}
4bv7[8:1]b/8bv3[8:1],,4b/8b,,,,,,2bv5[8:1]/6bv1[8:1]b,,2b/6b,,,,,,
72,,2,,12,,2,,42,,2,,62,,2,,72,,7,,78,,7,5,7,,7,,73,,7,,
71,,1,,14,,1,,61,,1,,21,,1,,
18,,2,1,3,,7,8,6,,1,2,8,1,8,1,
8,,8,,78,,8,,28,,8,,58,,8,,38,,3,,32,,3,,35,,3,,38,,3,,
{12}
7,7,5,4,4,2,1,1,3,8,8,6,
{8}
7-4[8:1],5-1[8:1],7,5,8w4[8:1],,8,,
{16}
6/1v4[8:1],,6,,16,,6,,5v2[8:1]/6,,6,,56,,6,,
3/6-2[8:1],,3,,3/6,,3,1,8-4[8:1]/3,,3,,38,,3,,
3-8[8:1]/5,,5,,35,,5,,6-2[8:1]/5,,5,,65,,5,,
54,,6,5,7,,3,4,2,,5,6,4,5,4,5,
4v1[8:1],,3,,34,,3,,2-6[8:1]/3,,3,,23,,3,,
7/4-8[8:1],,7,,74,,7,,7/6p2[8:1],,7,,76,,7,,
{12}
74,6,3,52,3,6,72,8,1,72,1,8,
{8}
7-4[8:1]/2,6,3-8[8:1],2,5,6,
{32}
2,3,4,5,6,7,8,1,
{16}
2/6-3[8:3],,,,7,5,7,5,6,,,,2,,,,
6/2-7[8:3],,,,3,1,3,1,2,,,,6,,,,
2/8-5[8:3],,,,1,7,1,7,8,,,,1,,,,
7/4-1[8:3],,,,5,3,5,3,4,,,,5,,,,
1/7-5^6-4[8:3],,,,7,8,6,8,7,,,,2,,,,
5/3-1^2-8[8:3],,,,3,4,2,4,3,,,,7,,,,
2/8-6^7-5[8:3],,,,8,2,1,2,8,,,,4,,,,
6/4-2^3-1[8:3],,,,4,6,5,6,4,,,,8,,,,
{4}
6h[1:2],E7,,E8,,E1,,E2,4h[1:2],A3,,A2,,A1,,8-4[8:1],8,,
{8}4/3h[8:3],,,4,25,,,6h[8:4],,5,5,5,74,3,
7-5[8:1]/3,3,73,3,8-4[8:1]/3,3,38,3,13,3,
{16}2,2,4,4,6,6,8,8,7,8,6,1,5,2,4,3,
{8}1bw5[8:1]b,,A1f,,
{16}2h[8:1]/8,,,,2,2,2,,
{8}23,53,74,1h[4:1]/5-1[8:1],,5,
{32}8-4-1-3[8:3],,,,{8},7,7,7,,
{16}6h[8:1]/4,,,,6,6,6,,
{8}67,17,38,5h[4:1]/1-5[8:1],,1,
{32}2h[8:1],,,,{8},
{12}23,24,25,36,37,38,
{16}3h[8:1]/1,,,,3,3,3,,
{8}32,82,61,8-4[8:1]/4h[4:1],,8,
{32}5-1-4-2[8:3],,,,{8},6,6,6,,
{16}7h[8:1]/5,,,,7,7,7,,
{8}76,46,25,4-8[8:1]/8h[4:1],,4,
{32}2,,,,{8},
8^5[8:1]/4^1[8:1],,48,,
{16}4x-7-5-8[8:3]/8x-4[8:1],,,,,,,,
{8}3V52[4:1],3,6,8V64[4:1],
,8,3-8-2-5[8:3]*-7[8:1],,3,,6-1[8:1],,
{8}6,,4-1[8:1]*-7[8:1],,4,,8-4[8:1],2-5[8:1],
8,2,6h[8:1],,
{12}67,68,61,72,73,74,
{8}5-2-4-8[8:3]/7-5[8:1],,5,,7-1-6-2[8:3],,4,4^1[8:1],
,4,7-4-6-1[8:3]*-3[8:1],,7,,,,
{24}2/8,37,46,
{8}5,7-5[8:1],1-5[8:1],7-3[8:1],1-4[8:1],7-4-2-6[8:3],1,
,,,,
5<8[8:1]/1>4[8:1],,15,,
{1}
1xh[8:15]/5xh[8:15],,
{32}
5bv8v6<7v5<7b[4:13]/1bv4v1v4>2v3b[4:13],4bx/8bx,7bx/3bx,2bx/6bx,
{4}
1bx/5bx,,,,,,,
{8}
,
{32}
,
{8}
,,,,,,,,
,,,,,,,,
{32}
5hb[32:11],,,,,,,,,,,,,,,
{16}
5h,5h,5h,5h,5h,5h,5h,5h,
46,,75,,1w5b[8:1]/3,,28,,1b/Cf,,,,
{24}
1h[24:1],2h[24:1],3h[24:1],7h[24:1],6h[24:1],5h[24:1],
{16}
8>3b[8:1]/4,,7v4b[8:1],7,8,,7,,1<6b[8:1],,,,5/1>4b[8:1],,3,,1<7[8:1]/5,,7<5b[8:1],,5>3[8:1]/1,,3>1b[8:1],,1b,,,,
{32}
,8xh,7h,6h,5h,4h,3h,2h,
{16}
1<6b[8:1],,
3,3,1p4b[8:1],,2,,1/3h[4:1],,,,5<7-3b[4:1],,4,,3>1-5b[4:1],,,4,,,8,,8w4b[8:1],,,,8b,,,,
{16}
1-5b[8:1],,2-4[8:1],,1,,2,,8-4b[8:1],,7-5[8:1],,8,,7,,1v4b[8:1],,4>1[8:1],,1,,6,,8<5[8:1],,5v8b[8:1],,8,,3,,
{4}
1w5[8:1],1,8w4[8:1]/7w3[8:1],78,6b<1b[8:1],
{32}
2x,3x,4x,5x,2x,3x,4x,5x,6b/3b>8[8:1],,,,,,,,8x,7x,6x,5x,7x,6x,5x,4x,
{16}
3b>1v7<5p8p3[8:10]/7b,,,,,,8,,8,,,,,,4,,4,,,,6,,,,4,,,,2,,,,
6b<8v2>4q1q6b[8:10]/2b,,,,,,1,,1,,,,,,5,,5,,,,3,,,,5,,,,7h[4:1],,,,
8b,6h,1b,6h,2b,6h,3b,6h,4b,7,4b,8,4b,1,4b,2,3b,1,2b,8,1b,7,8b,6,7b,,
68,,15,,24,,
6-1[8:1]/3,,6,,6/2-5[8:1],,2,,2/7-4[8:1],,7,,72,,2,,
{32}
3,4,5,6,7,8,1,2,3,4,5,6,7,8,1,2,
3/8,7,6,5,4,3,2,1,8,7,6,5,4,3,2,1,
{4}
8<6v8v5-1>3v1v4b[8:29],,Ch[4:1]/B2,,,,Ch[4:1]/B7,,,,Ch[4:1]/E1,,8,8,7v4b[8:1],7b/Cf,
{16}
3,5,2,6,1,8,8,7,8,6,1,5,2,4,4,5,3,5,4,5,2,6,5,6,1,7,6,7,8h,6h,2h,4h,
1,7,2,6,3,4,4,5,4,6,3,7,2,1,1,8,2,4,3,5,3,5,4,6,4,6,5,7,2h,8h,4h,6h,
3,5,2,6,1,7,8,8,2,6,1,7,3,5,2,6,4,8,4,6,3,7,3,5,2,6,2,4,3h,1h,5h,7h,
4,6,3,7,2,8,2,1,1,8,1,7,2,6,3,5,4,5,2,5,4,7,1,6,
{32}
1bx,2,3,4,7bx,6,5,4,2bx,3,4,5,8bx,7,6,5,
{16}
2,6,3,5,4,4,4,4,3,7,4,6,5,5,5,5,3,5,2,7,5,8,4,1,3,8,2,7,
{32}
1bx,2,3,4,7bx,6,5,4,
{16}
2,6,1,7,8,8,8,8,3,7,2,8,1,1,1,1,
{32}
1bx,2x,4bx,5x,1bx,2x,4bx,5x,2bx,3x,5bx,6x,2bx,3x,5bx,6x,3bx,4x,6bx,7x,3bx,4x,6bx,7x,4bx,5x,7bx,8x,4bx,5x,7bx,8x,
4bx,3x,1bx,8x,4bx,3x,1bx,8x,3bx,2x,8bx,7x,3bx,2x,8bx,7x,2bx,1x,7bx,6x,2bx,1x,7bx,6x,1bx,8x,6bx,5x,1bx,8x,6bx,5x,
8b,1x,2x,3x,8b,1x,2x,3x,8b,7x,6x,5x,8b,7x,6x,5x,8b,1x,2x,3x,8b,
7x,6x,5x,
{32}
8bx,8x,4bx,4x,8bx,8x,4bx,4x,8bxz4[8:1]*s4[8:1],,,,,,,,,,,Ch[256:1],,
