&title=小さな欲望の星空
&artist=上海アリス幻楽団
&first=0.05
&des=NaOH
&clock_count=4
&lv_4=10
&lv_5=13
&inote_4=(140),,,,,,,,
{8}3,3h[4:1],,,B8,,E7,,2,2h[4:1],,,E5,,E6,,
7,7h[4:1],,,E2,,E3,,8,8h[4:1],,,4,3,2,,
2h[4:1],,3h[4:1],,4h[4:1],,5h[4:1],,6h[4:1],,7h[4:1],,8h[4:1],,1h[4:1],,
2x>1[4:3],,,,,,,,4z8z4[4:2]b,,,,,,,,
26,2h[4:1]/6h[4:1],,,6x-4[8:1]/2x,,1,,73,7h[4:1]/3h[4:1],,,3x-5[8:1]/7x,,8,,
62,6h[4:1]/2h[4:1],,,2x-8[8:1]/6x,,5,,73,7h[4:1]/3h[4:1],,,46,46,5,,
18,2h[4:1]/7h[4:1],,,3x^6[8:1]/6x,,8,,81,7h[4:1]/2h[4:1],,,6x^3[8:1]/3x,,1,,
12,3h[4:1]/8h[4:1],,,8x-4[8:1]/3x,,1,,56,4h[4:1]/7h[4:1],,,8,1,2-6[8:1],,
(280){8},,8b,,
(140)3x,3,4,,6,6,5,,3,4,5,6,7-3[8:1],,1,,
2x,2,1,,7,7,8,,6,6,2,2,17,1h[4:1]/7h[4:1],,,
6x,6,5,,4,4,5,,6,5,4,3,2-6[8:1],,8,,
7x,7,8,,2,2,1,,3,3,7,7,82,8h[4:1]/2h[4:1],,,
3x,2,1h[4:1],,4,5,6h[4:1],,1,2,3,4,5-1[8:1],,3,,
6x,7,8h[4:1],,5,4,3h[4:1],,5,6,4,3,26,2h[4:1]/6h[4:1],,,
3,4,5h[4:1],,8,7,6h[4:1],,4,3,2h[4:1],,6,5,34,,
23,,18,,67,,45,,8,8,17,17,26,26,2b/6b,,
3,3,5,5,4,4,6,6,1,1,7,7,2,2,5,5,3,3,6,6,1,1,7,7,2,2,4,4,3,24,24,,
6,6,4,4,7,7,5,5,8,8,4,4,6,6,2,2,5,5,1,1,7,7,3,3,6,6,5,5,7,56,5b/6b,,
3,3,7,7,4,4,8,8,2,2,6,6,1,1,5,5,2,6,4,8,1,7,3,5,2,4,1,5,8,17,17,,
5,5,1,1,6,6,2,2,8,8,4,4,7,7,3,3,5,5,1,1,7,7,8,2,4,6,8,26,26,2b/6b,,,,
7xp4[4:2]/1x,,,,,,,,2xq5[4:2]/8x,,,,,,,,
8xp2[4:2]*<2[4:2]/1x,,,,,,,,1x,,28,2h[4:1]/8h[4:1],,,,
2,2x>5p1[4:2]/8x,,7x,7xh[4:1],,,,8,7x<4q1[4:2]/1x,,2x,2xh[4:1],,,,
3,3x^5p1[4:2]/6x,,7x,7xh[4:1],,,,6,6xh[4:1],,5,5-2[8:1]*-8[8:1]b,,,,1b,,
&inote_5=(140){4},,,,,,,,
{8}5,4h[4:1]/6h[4:1],,,4^2[8:1]/6,,46,,
4,3h[4:1]/5h[4:1],,,5^7[8:1]/3,,35,,
3,2h[4:1]/4h[4:1],,,2-5[8:1]/4,,26,,
6,5h[4:1]/7h[4:1],,,7-4[8:1]/5,7,{16}3x,2x,1x,,
{8}
6,56,6,46,7<4[8:1]/3,,8,,
2,12,2,28,3^8[8:1]/7,,4,,
5,35,5,25,6^3[8:1]/1,,2,,
1,15,1,16,{16}2,5,2,5,3,4,3,,
{8}
2,34,5,46,5-1[8:1]/7,,35,,
7,56,4,35,4-8[8:1]/2,,46,,
3,24,5,46,7-3[8:1]/5,,17,,
6,57,4,35,2>5[8:1]/4,1,{16}6,7,8,,
{8}
3,24,{16}3,3,4,,2>5[8:1]/5<8[8:1],,,,25,,,,
6,,57,,6,6,5,,7<4[8:1]/4>1[8:1],,,,74,,,,
2,,3x/7x,,6,,1x/5x,,1xv4[8:1]*v6[8:1],,,,1b,,,,
5,,3x/7x,,2,,1x/5x,,2x/6x,7x,8xz4[4:1]b,1x,2x,3x,4x,,,,
(280){4},
(140)
{8}
3xh[4:1],4,5h[4:1],4,2h[4:1],4,6h[4:1],4,
2-4[12:1],4,6-4[12:1],7,1-6[8:1]*-4[8:1],,1,,
6xh[4:1],5,4h[4:1],5,7h[4:1],5,3h[4:1],5,
7-4[8:1],8,1-4[8:1],2,7-5[12:1],7-3[8:1],,,
8xh[4:1],1,2h[4:1],8,6h[4:1],8,2h[4:1],8,
6^8[8:1],4,2^4[8:1],1,8-4[8:1]*-6[12:1],,8,,
2xh[4:1],1,8h[4:1],2,3h[4:1],1,7h[4:1],1,
3^8[8:1],4,5,6,5-1[8:1],5-7[12:1],,,
2xh[4:1],4,6h[4:1],8,2h[4:1],4,6h[4:1],8,
2>5[8:1],1,7-3[8:1],8,1-4[8:1]*-6[8:1],,1,,
7xh[4:1],5,3h[4:1],1,7h[4:1],5,3h[4:1],1,
8<5[8:1],7,3-8[8:1],2,4v7[8:1],4v1[8:1],,,
8xh[4:1],6,4xh[4:1],2,8xh[4:1],6,4xh[4:1],2,
8xh[4:1],6,4xh[4:1],2,8xh[4:1],6,4xh[4:1],2,
{16}8bx,,3,4,2b,,6,5,7b,,3,4,1b,,6,5,4bx/7bx,,56,,2b/5b,,34,,1b/8b,,27,,3,6,3,6,
4bx,5,4,5,4x,5,4,5,4x,5,4,5,4x,5,4,5,3bx,4,3,4,3x,4,3,4,2bx,5,2,5,2x,5,2,5,
1bx,8,1,8,1x,8,1,8,1x,8,1,8,1x,8,1,8,2bx,7,2,7,2x,7,2,7,2x,7,2,7,1bx,8,2bx,7,
3bx,6,3,6,3x,6,3,6,3x,6,3,6,3x,6,3,6,3bx,5,3,5,3x,5,3,5,2bx,6,2,6,2x,6,1bx,7,
1x,7,1,7,1x,7,1,7,1x,7,1,7,1x,7,1,7,1x,8,2,7,3,6,4,5,3,6,2,7,1b,,,,
3b,4,3,4,3x,4,3,4,3x,4,3,4,3x,4,3,4,2b,1,2,1,2x,1,2,1,3b,8,3,8,3x,8,
4b,7,4,7,3b,6,2b,5,1b,4,2b,5,2,5,2x,5,2,5,2x,5,2,5,2x,5,2,5,3x,4,3,4,
2b,5,1b,6,
8b,7,8,7,8x,7,8,7,8x,7,8,7,8x,7,8,7,
1b,8,1,8,1x,8,1,8,2b,8,2,8,2x,8,3b,7,3,7,3,7,3,7,3,7,2,6,2,6,1,5,1,5,
3,7,4,8,3,7,2,6,{32}1b,2,3,4,5,6,7,8,
{64}D1/E1,A1,D2/E2,A2,D3/E3,A3,D4/E4,A4,D5/E5,A5,D6/E6,A6,D7/E7,A7,D8/A8f,
{8},5xh[8:1],,4x/6x,4xh[8:1]/6xh[8:1],,4xh[8:1]/6xh[8:1],,
3x/4x,3xh[8:1]/4xh[8:1],,2x/5x,2xh[8:1]/5xh[8:1],,{16}3xh/4xh,3xh/4xh,3xh/4xh,,
{8}2x,2xh[8:1],,1x/7x,1xh[8:1]/7xh[8:1],,1xh[8:1]/7xh[8:1],,
2x/1x,2xh[8:1]/1xh[8:1],,3x/8x,3xh[8:1]/8xh[8:1],,{16}2xh/1xh,2xh/1xh,2xh/1xh,,
{8}3x/4x,2x/5x,5x/6x,4x/7x,8x-4[8:1]/3x,,1x/8x,,
5x/6x,4x/7x,3x/4x,2x/5x,1x-5[8:1]/6x,,1x/8x,,
2x/1x,3x/8x,8x/7x,1x/6x,5x-1[8:1]/2x,,4x/5x,,
3x/4x,2x/5x,1x/6x,7x/8x,{16}1x/6x,2x,3x,4x,5x/1xs5[8:1]b,8x,7x,,Cf,,,,
